<?xml version="1.0" standalone="no"?><!DOCTYPE svg PUBLIC "-//W3C//DTD SVG 1.1//EN" "http://www.w3.org/Graphics/SVG/1.1/DTD/svg11.dtd" ><svg xmlns="http://www.w3.org/2000/svg"><metadata></metadata><defs><font id="SF Pro Text Regular; 13.0d1e33; 2017-05-30" horiz-adv-x="2842"><font-face font-family="SF Pro Text" font-weight="400" font-stretch="normal" units-per-em="2048" panose-1="0 0 5 0 0 0 0 0 0 0" ascent="1950" descent="-494" x-height="0" bbox="-626 -573 2698 2205" underline-thickness="120" underline-position="-430" unicode-range="U+0020-f189" /><missing-glyph horiz-adv-x="2048" d="M100 -494 l0 284 l1848 0 l0 -284 l-1848 0 ZM100 -62 l0 284 l1848 0 l0 -284 l-1848 0 ZM100 370 l0 284 l1848 0 l0 -284 l-1848 0 ZM100 802 l0 284 l1848 0 l0 -284 l-1848 0 ZM100 1234 l0 284 l1848 0 l0 -284 l-1848 0 ZM100 1666 l0 284 l1848 0 l0 -284 l-1848 0 Z" /><glyph glyph-name="space" unicode=" " d="" /><glyph glyph-name="exclam" unicode="!" d="M218 1444 l200 0 l-17 -964 l-166 0 l-17 964 ZM418.5 21 q-38.5 -39 -99.5 -39 q-61 0 -100 39 q-39 39 -39 100 q0 61 39 100.5 q39 39.5 100 39.5 q61 0 99.5 -39 q38.5 -39 38.5 -101 q0 -61 -38.5 -100 Z" /><glyph glyph-name="quotedbl" unicode="&quot;" d="M339 904 l-160 0 l0 539 l160 0 l0 -539 ZM716 904 l-160 0 l0 539 l160 0 l0 -539 Z" /><glyph glyph-name="numbersign" unicode="#" d="M663 0 l82 403 l-328 0 l-82 -403 l-142 0 l81 403 l-234 0 l28 144 l237 0 l73 364 l-247 0 l29 143 l247 0 l81 389 l142 0 l-78 -389 l326 0 l81 389 l143 0 l-80 -389 l249 0 l-28 -143 l-251 0 l-75 -364 l261 0 l-28 -144 l-262 0 l-82 -403 l-143 0 ZM445 544 l330 0 l75 369 l-330 0 l-75 -369 Z" /><glyph glyph-name="dollar" unicode="$" d="M732 -137 l-134 0 l0 134 q-203 15 -325 123.5 q-122 108.5 -123 274.5 l171 0 q8 -100 81 -164 q73 -64 196 -79 l0 520 l-80 22 q-161 43 -247 139 q-86 96 -86 234 q0 163 111 268.5 q111 105.5 302 124.5 l0 140 l134 0 l0 -139 q186 -16 300.5 -122.5 q114.5 -106.5 119.5 -269.5 l-170 0 q-3 94 -71.5 159 q-68.5 65 -178.5 78 l0 -489 l86 -21 q185 -49 272.5 -143.5 q87.5 -94.5 87.5 -244.5 q0 -178 -117 -285.5 q-117 -107.5 -329 -124.5 l0 -135 ZM1005 394 q0 100 -66 160.5 q-66 60.5 -207 90.5 l0 -496 q130 7 201.5 71 q71.5 64 71.5 174 ZM357 1077 q0 -89 61.5 -147.5 q61.5 -58.5 179.5 -83.5 l0 460 q-105 -6 -173 -70.5 q-68 -64.5 -68 -158.5 Z" /><glyph glyph-name="percent" unicode="%" d="M609 1371 q86 -97 86 -250 q0 -153 -86 -250.5 q-86 -97.5 -221 -97.5 q-135 0 -221.5 97.5 q-86.5 97.5 -86.5 250.5 q0 152 86.5 249.5 q86.5 97.5 221.5 97.5 q135 0 221 -97 ZM388 901 q66 0 106.5 60.5 q40.5 60.5 40.5 159.5 q0 101 -39.5 160 q-39.5 59 -107.5 59 q-67 0 -107.5 -59.5 q-40.5 -59.5 -40.5 -159.5 q0 -100 40.5 -160 q40.5 -60 107.5 -60 ZM372 0 l-184 0 l551 752 l506 691 l182 0 l-560 -766 l-495 -677 ZM1444 573 q86 -97 86 -250 q0 -153 -86 -250.5 q-86 -97.5 -221 -97.5 q-135 0 -221.5 97.5 q-86.5 97.5 -86.5 250.5 q0 152 86.5 249.5 q86.5 97.5 221.5 97.5 q135 0 221 -97 ZM1223 103 q66 0 106.5 60.5 q40.5 60.5 40.5 159.5 q0 101 -39.5 160 q-39.5 59 -107.5 59 q-67 0 -107.5 -59.5 q-40.5 -59.5 -40.5 -159.5 q0 -100 40.5 -160 q40.5 -60 107.5 -60 Z" /><glyph glyph-name="ampersand" unicode="&amp;" d="M1203 0 l-133 144 q-93 -81 -214.5 -126 q-121.5 -45 -252.5 -45 q-215 0 -351.5 115 q-136.5 115 -136.5 297 q0 252 286 403 q6 3 16 8 q10 5 22.5 11 q12.5 6 17.5 9 q-99 104 -140 181.5 q-41 77.5 -41 156.5 q0 139 105 231 q105 92 263 92 q160 0 264 -91.5 q104 -91.5 104 -233.5 q0 -111 -72.5 -198 q-72.5 -87 -239.5 -175 l361 -388 q68 136 68 388 l0 25 l168 0 l0 -26 q0 -325 -119 -509 l251 -269 l-226 0 ZM505 682 q-210 -109 -210 -285 q0 -122 89.5 -197 q89.5 -75 234.5 -75 q99 0 192.5 36.5 q93.5 36.5 152.5 98.5 l-408 446 q-11 -4 -51 -24 ZM603 881 q132 67 186 127 q54 60 54 138 q0 84 -55 136 q-55 52 -143 52 q-86 0 -141.5 -53 q-55.5 -53 -55.5 -137 q0 -60 35 -119 q35 -59 120 -144 Z" /><glyph glyph-name="quotesingle" unicode="&#39;" d="M339 904 l-160 0 l0 539 l160 0 l0 -539 Z" /><glyph glyph-name="parenleft" unicode="(" d="M242 600 q0 530 284 906 l146 0 q-107 -138 -180 -396 q-73 -258 -73 -510 q0 -253 72.5 -511.5 q72.5 -258.5 180.5 -395.5 l-146 0 q-284 376 -284 907 Z" /><glyph glyph-name="parenright" unicode=")" d="M540 600 q0 -531 -284 -907 l-146 0 q108 137 180.5 395.5 q72.5 258.5 72.5 511.5 q0 252 -73 510 q-73 258 -180 396 l146 0 q284 -376 284 -906 Z" /><glyph glyph-name="asterisk" unicode="*" d="M812 815 l-244 158 l16 -289 l-136 0 l16 290 l-244 -159 l-67 116 l260 131 l-260 132 l67 118 l244 -163 l-16 294 l136 0 l-16 -294 l244 163 l67 -118 l-259 -132 l259 -131 l-67 -116 Z" /><glyph glyph-name="plus" unicode="+" d="M738 506 l0 -435 l-148 0 l0 435 l-435 0 l0 148 l435 0 l0 435 l148 0 l0 -435 l435 0 l0 -148 l-435 0 Z" /><glyph glyph-name="comma" unicode="," d="M271 -367 l-129 0 l95 569 l191 0 l-157 -569 Z" /><glyph glyph-name="hyphen" unicode="-&#x2011;" d="M811 499 l-656 0 l0 163 l656 0 l0 -163 Z" /><glyph glyph-name="period" unicode="." d="M304 -10 q-53 0 -91.5 38.5 q-38.5 38.5 -38.5 91.5 q0 54 38.5 92 q38.5 38 91.5 38 q54 0 92 -38 q38 -38 38 -92 q0 -53 -38 -91.5 q-38 -38.5 -92 -38.5 Z" /><glyph glyph-name="slash" unicode="/" d="M152 -307 l-152 0 l530 1813 l152 0 l-530 -1813 Z" /><glyph glyph-name="zero" unicode="0" d="M646 -34 q-244 0 -378 198 q-134 198 -134 558 q0 357 135 556 q135 199 377 199 q241 0 375.5 -200 q134.5 -200 134.5 -558 q0 -359 -133.5 -556 q-133.5 -197 -376.5 -197 ZM400.5 278 q85.5 -155 245.5 -155 q160 0 244.5 154.5 q84.5 154.5 84.5 444.5 q0 287 -85.5 442 q-85.5 155 -243.5 155 q-158 0 -244.5 -155.5 q-86.5 -155.5 -86.5 -441.5 q0 -289 85.5 -444 Z" /><glyph glyph-name="one" unicode="1" d="M506 0 l0 1243 l-16 0 l-367 -266 l0 190 l384 276 l179 0 l0 -1443 l-180 0 Z" /><glyph glyph-name="two" unicode="2" d="M152 1037 q0 192 130.5 316 q130.5 124 331.5 124 q194 0 325.5 -116.5 q131.5 -116.5 131.5 -288.5 q0 -113 -64 -222 q-64 -109 -241 -299 l-347 -373 l0 -16 l676 0 l0 -162 l-934 0 l0 124 l499 545 q139 151 185 230 q46 79 46 166 q0 108 -81.5 181.5 q-81.5 73.5 -200.5 73.5 q-127 0 -205 -78 q-78 -78 -78 -205 l0 -1 l-174 0 l0 1 Z" /><glyph glyph-name="three" unicode="3" d="M456 665 l0 154 l175 0 q123 0 201.5 72 q78.5 72 78.5 184 q0 110 -76 177.5 q-76 67.5 -201 67.5 q-125 0 -202 -65.5 q-77 -65.5 -88 -181.5 l-175 0 q14 188 140 296 q126 108 332 108 q124 0 228.5 -50.5 q104.5 -50.5 164.5 -137.5 q60 -87 60 -190 q0 -129 -67 -218 q-67 -89 -186 -118 l0 -16 q147 -19 231 -114.5 q84 -95.5 84 -243.5 q0 -178 -147 -300.5 q-147 -122.5 -361 -122.5 q-220 0 -359 112.5 q-139 112.5 -149 297.5 l174 0 q12 -115 102 -184 q90 -69 230 -69 q142 0 233.5 76 q91.5 76 91.5 195 q0 125 -89 198 q-89 73 -243 73 l-183 0 Z" /><glyph glyph-name="four" unicode="4" d="M820 0 l0 299 l-703 0 l0 164 q198 352 618 980 l261 0 l0 -983 l205 0 l0 -161 l-205 0 l0 -299 l-176 0 ZM301 471 l0 -12 l520 0 l0 817 l-12 0 q-234 -340 -508 -805 Z" /><glyph glyph-name="five" unicode="5" d="M637 -34 q-205 0 -339 115.5 q-134 115.5 -146 302.5 l177 0 q12 -117 97.5 -188.5 q85.5 -71.5 212.5 -71.5 q145 0 233.5 91 q88.5 91 88.5 239 q0 148 -88.5 240.5 q-88.5 92.5 -230.5 92.5 q-98 0 -176 -42.5 q-78 -42.5 -122 -119.5 l-169 0 l79 818 l805 0 l0 -161 l-664 0 l-41 -463 l16 0 q105 123 305 123 q206 0 336 -135 q130 -135 130 -348 q0 -220 -140 -356.5 q-140 -136.5 -364 -136.5 Z" /><glyph glyph-name="six" unicode="6" d="M671 -33 q-163 0 -284 84.5 q-121 84.5 -189 243.5 q-70 164 -70 402 q0 372 145 576 q145 204 410 204 q184 0 311.5 -101.5 q127.5 -101.5 161.5 -275.5 l-185 0 q-29 101 -106.5 159 q-77.5 58 -183.5 58 q-176 0 -273.5 -152 q-97.5 -152 -104.5 -440 l16 0 q53 105 154 163.5 q101 58.5 230 58.5 q206 0 340 -136.5 q134 -136.5 134 -346.5 q0 -218 -142 -357.5 q-142 -139.5 -364 -139.5 ZM436.5 222 q93.5 -97 232.5 -97 q139 0 232.5 95.5 q93.5 95.5 93.5 237.5 q0 148 -90.5 240.5 q-90.5 92.5 -233.5 92.5 q-143 0 -235.5 -92 q-92.5 -92 -92.5 -235 q0 -145 93.5 -242 Z" /><glyph glyph-name="seven" unicode="7" d="M221 0 l648 1268 l0 14 l-772 0 l0 161 l955 0 l0 -167 l-642 -1276 l-189 0 Z" /><glyph glyph-name="eight" unicode="8" d="M1028.5 83.5 q-145.5 -117.5 -374.5 -117.5 q-229 0 -374.5 117.5 q-145.5 117.5 -145.5 302.5 q0 141 82 242 q82 101 218 126 l0 16 q-110 30 -175.5 117 q-65.5 87 -65.5 205 q0 169 129.5 277 q129.5 108 331.5 108 q202 0 331.5 -108 q129.5 -108 129.5 -277 q0 -119 -64.5 -205 q-64.5 -86 -176.5 -117 l0 -16 q136 -25 218 -126 q82 -101 82 -242 q0 -185 -145.5 -302.5 ZM410 197.5 q94 -77.5 244 -77.5 q150 0 244 77.5 q94 77.5 94 201.5 q0 124 -94 201.5 q-94 77.5 -244 77.5 q-150 0 -244 -77.5 q-94 -77.5 -94 -201.5 q0 -124 94 -201.5 ZM448 897.5 q78 -67.5 206 -67.5 q128 0 206 67.5 q78 67.5 78 177.5 q0 112 -78 180 q-78 68 -206 68 q-128 0 -206 -68 q-78 -68 -78 -180 q0 -110 78 -177.5 Z" /><glyph glyph-name="nine" unicode="9" d="M622 -33 q-184 0 -311.5 101.5 q-127.5 101.5 -161.5 275.5 l185 0 q29 -101 106.5 -159 q77.5 -58 183.5 -58 q176 0 273.5 152 q97.5 152 104.5 440 l-8 0 l-4 0 l-4 0 q-53 -105 -154 -163.5 q-101 -58.5 -230 -58.5 q-206 0 -340 136.5 q-134 136.5 -134 346.5 q0 218 142 357.5 q142 139.5 364 139.5 q162 0 284 -84 q122 -84 189 -244 q70 -164 70 -402 q0 -372 -145 -576 q-145 -204 -410 -204 ZM400.5 745.5 q90.5 -92.5 233.5 -92.5 q143 0 235.5 92 q92.5 92 92.5 235 q0 145 -93.5 242 q-93.5 97 -232.5 97 q-139 0 -232.5 -95.5 q-93.5 -95.5 -93.5 -237.5 q0 -148 90.5 -240.5 Z" /><glyph glyph-name="colon" unicode=":" d="M304 -10 q-53 0 -91.5 38.5 q-38.5 38.5 -38.5 91.5 q0 54 38.5 92 q38.5 38 91.5 38 q54 0 92 -38 q38 -38 38 -92 q0 -53 -38 -91.5 q-38 -38.5 -92 -38.5 ZM304 759 q-53 0 -91.5 38.5 q-38.5 38.5 -38.5 91.5 q0 54 38.5 92 q38.5 38 91.5 38 q54 0 92 -38 q38 -38 38 -92 q0 -53 -38 -91.5 q-38 -38.5 -92 -38.5 Z" /><glyph glyph-name="semicolon" unicode=";" d="M304 759 q-53 0 -91.5 38.5 q-38.5 38.5 -38.5 91.5 q0 54 38.5 92 q38.5 38 91.5 38 q54 0 92 -38 q38 -38 38 -92 q0 -53 -38 -91.5 q-38 -38.5 -92 -38.5 ZM246 -367 l-129 0 l95 569 l191 0 l-157 -569 Z" /><glyph glyph-name="less" unicode="&lt;" d="M1104 991 l-708 -386 l0 -16 l708 -386 l0 -186 l-880 509 l0 142 l880 509 l0 -186 Z" /><glyph glyph-name="equal" unicode="=" d="M1168 312 l-1008 0 l0 149 l1008 0 l0 -149 ZM1168 700 l-1008 0 l0 149 l1008 0 l0 -149 Z" /><glyph glyph-name="greater" unicode="&gt;" d="M224 991 l0 186 l880 -509 l0 -142 l-880 -509 l0 186 l708 386 l0 16 l-708 386 Z" /><glyph glyph-name="question" unicode="?" d="M80 1066 q9 171 121.5 279.5 q112.5 108.5 314.5 108.5 q187 0 305.5 -103 q118.5 -103 118.5 -259 q0 -219 -209 -345 q-94 -56 -128.5 -106 q-34.5 -50 -34.5 -130 l0 -65 l-175 0 l0 92 q-1 98 47.5 170 q48.5 72 152.5 134 q88 54 124.5 108 q36.5 54 36.5 133 q0 94 -67.5 154.5 q-67.5 60.5 -177.5 60.5 q-113 0 -181.5 -62 q-68.5 -62 -76.5 -170 l-171 0 ZM593.5 21 q-38.5 -39 -99.5 -39 q-61 0 -100 39 q-39 39 -39 100 q0 61 39 100.5 q39 39.5 100 39.5 q61 0 99.5 -39 q38.5 -39 38.5 -101 q0 -61 -38.5 -100 Z" /><glyph glyph-name="at" unicode="@" d="M934 875 q-100 0 -156.5 -74 q-56.5 -74 -56.5 -205 q0 -130 56.5 -205 q56.5 -75 154.5 -75 q103 0 164 76 q61 76 61 204 q0 128 -60.5 203.5 q-60.5 75.5 -162.5 75.5 ZM969 1435 q234 0 416.5 -93 q182.5 -93 284 -260.5 q101.5 -167.5 101.5 -382.5 q0 -245 -102 -389 q-102 -144 -274 -144 q-88 0 -149.5 47 q-61.5 47 -70.5 121 l-16 0 q-32 -76 -97 -117.5 q-65 -41.5 -153 -41.5 q-156 0 -252 117 q-96 117 -96 308 q0 182 97 297.5 q97 115.5 251 115.5 q79 0 142 -38 q63 -38 92 -103 l16 0 l0 122 l151 0 l0 -587 q0 -53 29.5 -82 q29.5 -29 83.5 -29 q94 0 150.5 110 q56.5 110 56.5 295 q0 179 -84.5 317 q-84.5 138 -238 214.5 q-153.5 76.5 -351.5 76.5 q-193 0 -346.5 -91 q-153.5 -91 -239.5 -254.5 q-86 -163.5 -86 -368.5 q0 -320 191.5 -511 q191.5 -191 512.5 -191 q103 0 195.5 13 q92.5 13 139.5 35 l0 -126 q-142 -49 -337 -49 q-387 0 -615 226 q-228 226 -228 609 q0 183 60.5 338.5 q60.5 155.5 168.5 264.5 q108 109 261.5 170 q153.5 61 335.5 61 Z" /><glyph glyph-name="A" unicode="a" d="M1122 0 l-145 413 l-574 0 l-145 -413 l-189 0 l532 1443 l178 0 l532 -1443 l-189 0 ZM682 1210 l-226 -644 l468 0 l-226 644 l-16 0 Z" /><glyph glyph-name="B" unicode="b" d="M747 0 l-563 0 l0 1443 l552 0 q198 0 312.5 -97 q114.5 -97 114.5 -263 q0 -112 -72.5 -202 q-72.5 -90 -176.5 -109 l0 -16 q148 -19 235 -113.5 q87 -94.5 87 -237.5 q0 -191 -129.5 -298 q-129.5 -107 -359.5 -107 ZM364 1284 l0 -463 l288 0 q329 0 329 231 q0 110 -74.5 171 q-74.5 61 -208.5 61 l-334 0 ZM364 159 l356 0 q163 0 247 65 q84 65 84 190 q0 252 -348 252 l-339 0 l0 -507 Z" /><glyph glyph-name="C" unicode="c" d="M765 -34 q-294 0 -465.5 203 q-171.5 203 -171.5 552 q0 349 171 552.5 q171 203.5 465 203.5 q228 0 390 -130 q162 -130 194 -339 l-183 0 q-36 140 -144 221.5 q-108 81.5 -257 81.5 q-208 0 -329.5 -159 q-121.5 -159 -121.5 -431 q0 -272 122 -430.5 q122 -158.5 330 -158.5 q151 0 258.5 72.5 q107.5 72.5 141.5 197.5 l183 0 q-36 -199 -194.5 -317.5 q-158.5 -118.5 -388.5 -118.5 Z" /><glyph glyph-name="D" unicode="d" d="M184 1443 l495 0 q321 0 501 -190.5 q180 -190.5 180 -530.5 q0 -341 -179.5 -531.5 q-179.5 -190.5 -501.5 -190.5 l-495 0 l0 1443 ZM364 1281 l0 -1119 l303 0 q241 0 375 147 q134 147 134 411 q0 265 -134.5 413 q-134.5 148 -374.5 148 l-303 0 Z" /><glyph glyph-name="E" unicode="e" d="M1078 162 l0 -162 l-894 0 l0 1443 l894 0 l0 -162 l-714 0 l0 -463 l677 0 l0 -160 l-677 0 l0 -496 l714 0 Z" /><glyph glyph-name="F" unicode="f" d="M364 0 l-180 0 l0 1443 l876 0 l0 -162 l-696 0 l0 -496 l639 0 l0 -160 l-639 0 l0 -625 Z" /><glyph glyph-name="G" unicode="g" d="M1395 558 q0 -267 -168 -429.5 q-168 -162.5 -445 -162.5 q-299 0 -476.5 205 q-177.5 205 -177.5 551 q0 342 179 548.5 q179 206.5 475 206.5 q240 0 402.5 -125 q162.5 -125 201.5 -339 l-183 0 q-47 146 -154 222 q-107 76 -267 76 q-214 0 -341.5 -160 q-127.5 -160 -127.5 -429 q0 -273 126.5 -431.5 q126.5 -158.5 343.5 -158.5 q194 0 313.5 113 q119.5 113 119.5 296 l0 35 l-406 0 l0 158 l585 0 l0 -176 Z" /><glyph glyph-name="H" unicode="h" d="M1336 0 l-180 0 l0 657 l-792 0 l0 -657 l-180 0 l0 1443 l180 0 l0 -624 l792 0 l0 624 l180 0 l0 -1443 Z" /><glyph glyph-name="I" unicode="i" d="M364 0 l-180 0 l0 1443 l180 0 l0 -1443 Z" /><glyph glyph-name="J" unicode="j" d="M86 337 l179 0 q3 -91 67 -148 q64 -57 165 -57 q116 0 178.5 69.5 q62.5 69.5 62.5 201.5 l0 1040 l180 0 l0 -1041 q0 -206 -112 -321 q-112 -115 -308 -115 q-182 0 -297 103 q-115 103 -115 268 Z" /><glyph glyph-name="K" unicode="k" d="M364 0 l-180 0 l0 1443 l180 0 l0 -701 l16 0 l632 701 l226 0 l-577 -623 l630 -820 l-233 0 l-521 695 l-173 -191 l0 -504 Z" /><glyph glyph-name="L" unicode="l" d="M1060 162 l0 -162 l-876 0 l0 1443 l180 0 l0 -1281 l696 0 Z" /><glyph glyph-name="M" unicode="m" d="M1606 0 l-168 0 l0 1102 l-12 0 l-455 -1092 l-152 0 l-455 1092 l-12 0 l0 -1102 l-168 0 l0 1443 l209 0 l494 -1194 l16 0 l494 1194 l209 0 l0 -1443 Z" /><glyph glyph-name="N" unicode="n" d="M362 0 l-178 0 l0 1443 l175 0 l783 -1123 l16 0 l0 1123 l178 0 l0 -1443 l-175 0 l-783 1119 l-16 0 l0 -1119 Z" /><glyph glyph-name="O" unicode="o" d="M791 1477 q307 0 483.5 -203.5 q176.5 -203.5 176.5 -551.5 q0 -348 -176.5 -552 q-176.5 -204 -483.5 -204 q-309 0 -486 204 q-177 204 -177 552 q0 348 178.5 551.5 q178.5 203.5 484.5 203.5 ZM791 1311 q-220 0 -349 -159 q-129 -159 -129 -430 q0 -271 127.5 -430.5 q127.5 -159.5 350.5 -159.5 q221 0 348 160 q127 160 127 430 q0 272 -127 430.5 q-127 158.5 -348 158.5 Z" /><glyph glyph-name="P" unicode="p" d="M184 1443 l545 0 q205 0 333.5 -130.5 q128.5 -130.5 128.5 -336.5 q0 -202 -130.5 -331.5 q-130.5 -129.5 -333.5 -129.5 l-363 0 l0 -515 l-180 0 l0 1443 ZM364 1283 l0 -608 l318 0 q154 0 239 79 q85 79 85 222 q0 149 -83.5 228 q-83.5 79 -240.5 79 l-318 0 Z" /><glyph glyph-name="Q" unicode="q" d="M791 -34 q-308 0 -485.5 202 q-177.5 202 -177.5 553 q0 349 178.5 552.5 q178.5 203.5 484.5 203.5 q304 0 482 -203.5 q178 -203.5 178 -552.5 q0 -215 -66.5 -378 q-66.5 -163 -189.5 -252 l183 -254 l-202 0 l-127 173 q-117 -44 -258 -44 ZM792 132 q81 0 154 22 l-191 259 l204 0 l131 -174 q85 68 130.5 192.5 q45.5 124.5 45.5 289.5 q0 272 -128 431 q-128 159 -347 159 q-221 0 -349.5 -159 q-128.5 -159 -128.5 -431 q0 -273 128.5 -431 q128.5 -158 350.5 -158 Z" /><glyph glyph-name="R" unicode="r" d="M364 1283 l0 -552 l355 0 q139 0 214.5 71.5 q75.5 71.5 75.5 204.5 q0 130 -79 203 q-79 73 -219 73 l-347 0 ZM364 571 l0 -571 l-180 0 l0 1443 l551 0 q209 0 334.5 -117.5 q125.5 -117.5 125.5 -312.5 q0 -151 -77 -261 q-77 -110 -213 -153 l334 -599 l-211 0 l-309 571 l-355 0 Z" /><glyph glyph-name="S" unicode="s" d="M115 377 l182 0 q17 -113 117 -180 q100 -67 254 -67 q146 0 241.5 70.5 q95.5 70.5 95.5 177.5 q0 92 -70 152.5 q-70 60.5 -219 98.5 l-185 48 q-196 49 -285 142 q-89 93 -89 247 q0 184 140.5 297.5 q140.5 113.5 369.5 113.5 q209 0 350 -112 q141 -112 152 -287 l-181 0 q-19 111 -105.5 173.5 q-86.5 62.5 -221.5 62.5 q-144 0 -231.5 -66.5 q-87.5 -66.5 -87.5 -175.5 q0 -85 64.5 -138 q64.5 -53 213.5 -91 l151 -40 q224 -56 321.5 -150 q97.5 -94 97.5 -253 q0 -199 -146 -316.5 q-146 -117.5 -393 -117.5 q-229 0 -375.5 112 q-146.5 112 -160.5 299 Z" /><glyph glyph-name="T" unicode="t" d="M739 0 l-180 0 l0 1281 l-465 0 l0 162 l1110 0 l0 -162 l-465 0 l0 -1281 Z" /><glyph glyph-name="U" unicode="u" d="M369 1443 l0 -935 q0 -167 104.5 -271.5 q104.5 -104.5 288.5 -104.5 q184 0 288.5 104.5 q104.5 104.5 104.5 271.5 l0 935 l180 0 l0 -947 q0 -235 -154.5 -382.5 q-154.5 -147.5 -418.5 -147.5 q-264 0 -418.5 147.5 q-154.5 147.5 -154.5 382.5 l0 947 l180 0 Z" /><glyph glyph-name="V" unicode="v" d="M779 0 l-178 0 l-532 1443 l189 0 l424 -1210 l16 0 l424 1210 l189 0 l-532 -1443 Z" /><glyph glyph-name="W" unicode="w" d="M985 1139 l-332 -1139 l-170 0 l-393 1443 l188 0 l287 -1173 l12 0 l323 1173 l182 0 l323 -1173 l12 0 l287 1173 l188 0 l-393 -1443 l-170 0 l-332 1139 l-12 0 Z" /><glyph glyph-name="X" unicode="x" d="M90 0 l494 726 l-488 717 l217 0 l380 -574 l16 0 l386 574 l205 0 l-500 -725 l489 -718 l-216 0 l-378 569 l-16 0 l-385 -569 l-204 0 Z" /><glyph glyph-name="Y" unicode="y" d="M762 0 l-180 0 l0 621 l-512 822 l205 0 l389 -641 l16 0 l389 641 l205 0 l-512 -822 l0 -621 Z" /><glyph glyph-name="Z" unicode="z" d="M144 0 l0 128 l817 1137 l0 16 l-789 0 l0 162 l1022 0 l0 -128 l-813 -1137 l0 -16 l830 0 l0 -162 l-1067 0 Z" /><glyph glyph-name="bracketleft" unicode="[" d="M268 1506 l434 0 l0 -136 l-266 0 l0 -1541 l266 0 l0 -136 l-434 0 l0 1813 Z" /><glyph glyph-name="backslash" unicode="\" d="M530 -307 l-530 1813 l152 0 l530 -1813 l-152 0 Z" /><glyph glyph-name="bracketright" unicode="]" d="M514 1506 l0 -1813 l-434 0 l0 136 l266 0 l0 1541 l-266 0 l0 136 l434 0 Z" /><glyph glyph-name="asciicircum" unicode="^" d="M484 1280 l-220 -500 l-163 0 l296 639 l190 0 l296 -639 l-163 0 l-220 500 l-16 0 Z" /><glyph glyph-name="underscore" unicode="_" d="M926 -235 l-936 0 l0 128 l936 0 l0 -128 Z" /><glyph glyph-name="grave" unicode="`" d="M782 1263 l-194 0 l-278 338 l220 0 l252 -338 Z" /><glyph glyph-name="a" unicode="a" d="M494 132 q133 0 220.5 77 q87.5 77 87.5 193 l0 99 l-290 -19 q-122 -8 -179 -51 q-57 -43 -57 -125 q0 -81 61 -127.5 q61 -46.5 157 -46.5 ZM462 -19 q-159 0 -261.5 87.5 q-102.5 87.5 -102.5 233.5 q0 144 102 226 q102 82 291 93 l311 19 l0 98 q0 100 -62 153 q-62 53 -182 53 q-97 0 -161 -35 q-64 -35 -82 -99 l-174 0 q17 129 133.5 208 q116.5 79 289.5 79 q196 0 303 -95 q107 -95 107 -264 l0 -738 l-164 0 l0 159 l-16 0 q-52 -86 -138 -132 q-86 -46 -194 -46 Z" /><glyph glyph-name="b" unicode="b" d="M698 -19 q-112 0 -203.5 50.5 q-91.5 50.5 -142.5 140.5 l-16 0 l0 -172 l-164 0 l0 1506 l172 0 l0 -598 l16 0 q44 87 135.5 138 q91.5 51 202.5 51 q206 0 329 -152 q123 -152 123 -406 q0 -253 -123.5 -405.5 q-123.5 -152.5 -328.5 -152.5 ZM658 942 q-147 0 -232.5 -108 q-85.5 -108 -85.5 -295 q0 -187 85.5 -295 q85.5 -108 232.5 -108 q148 0 231 107 q83 107 83 296 q0 189 -83 296 q-83 107 -231 107 Z" /><glyph glyph-name="c" unicode="c" d="M1054 748 l-174 0 q-22 85 -94.5 139.5 q-72.5 54.5 -183.5 54.5 q-145 0 -230.5 -108 q-85.5 -108 -85.5 -291 q0 -186 86 -296.5 q86 -110.5 230 -110.5 q109 0 181.5 49 q72.5 49 96.5 140 l174 0 q-24 -153 -143 -248.5 q-119 -95.5 -308 -95.5 q-227 0 -361 152.5 q-134 152.5 -134 409.5 q0 252 134 403 q134 151 360 151 q189 0 308.5 -99 q119.5 -99 143.5 -250 Z" /><glyph glyph-name="d" unicode="d" d="M561 -19 q-207 0 -330 152 q-123 152 -123 406 q0 253 123.5 405.5 q123.5 152.5 329.5 152.5 q113 0 202.5 -50.5 q89.5 -50.5 135.5 -138.5 l15 0 l0 598 l172 0 l0 -1506 l-164 0 l0 172 l-16 0 q-51 -90 -142 -140.5 q-91 -50.5 -203 -50.5 ZM601 942 q-147 0 -231 -107.5 q-84 -107.5 -84 -295.5 q0 -189 83.5 -296 q83.5 -107 231.5 -107 q147 0 232 108 q85 108 85 295 q0 185 -85.5 294 q-85.5 109 -231.5 109 Z" /><glyph glyph-name="e" unicode="e" d="M592 945 q-129 0 -212 -87 q-83 -87 -93 -230 l594 0 q-3 143 -82 230 q-79 87 -207 87 ZM876 279 l172 0 q-39 -140 -158.5 -219 q-119.5 -79 -295.5 -79 q-224 0 -355 150.5 q-131 150.5 -131 406.5 q0 255 132 407 q132 152 354 152 q218 0 343 -145 q125 -145 125 -397 l0 -66 l-775 0 l0 -8 q7 -160 90.5 -254 q83.5 -94 220.5 -94 q209 0 278 146 Z" /><glyph glyph-name="f" unicode="f" d="M234 0 l0 934 l-179 0 l0 144 l179 0 l0 120 q0 318 313 318 q65 0 116 -10 l0 -140 q-26 5 -81 5 q-92 0 -134 -44 q-42 -44 -42 -134 l0 -115 l247 0 l0 -144 l-247 0 l0 -934 l-172 0 Z" /><glyph glyph-name="g" unicode="g" d="M598 168 q149 0 234.5 104.5 q85.5 104.5 85.5 282.5 q0 177 -86 282 q-86 105 -234 105 q-148 0 -230 -104 q-82 -104 -82 -283 q0 -179 82 -283 q82 -104 230 -104 ZM606 -414 q-193 0 -312.5 80 q-119.5 80 -139.5 215 l182 0 q14 -67 85 -106 q71 -39 185 -39 q145 0 226.5 67.5 q81.5 67.5 81.5 186.5 l0 212 l-16 0 q-51 -89 -139 -137.5 q-88 -48.5 -199 -48.5 q-208 0 -330 147.5 q-122 147.5 -122 391.5 q0 244 123 393 q123 149 329 149 q113 0 206 -51.5 q93 -51.5 140 -138.5 l16 0 l0 171 l164 0 l0 -1097 q0 -181 -130 -288 q-130 -107 -350 -107 Z" /><glyph glyph-name="h" unicode="h" d="M172 0 l0 1506 l172 0 l0 -598 l16 0 q41 91 125.5 140 q84.5 49 206.5 49 q172 0 272 -105.5 q100 -105.5 100 -293.5 l0 -698 l-172 0 l0 656 q0 286 -249 286 q-142 0 -220.5 -82.5 q-78.5 -82.5 -78.5 -221.5 l0 -638 l-172 0 Z" /><glyph glyph-name="i" unicode="i" d="M166 0 l0 1078 l172 0 l0 -1078 l-172 0 ZM337 1332.5 q-35 -35.5 -85 -35.5 q-50 0 -85 35.5 q-35 35.5 -35 84.5 q0 49 35 84.5 q35 35.5 85 35.5 q50 0 85 -35.5 q35 -35.5 35 -84.5 q0 -49 -35 -84.5 Z" /><glyph glyph-name="j" unicode="j" d="M338 1078 l0 -1131 q0 -166 -80 -241.5 q-80 -75.5 -250 -75.5 l-30 0 l0 147 l26 0 q90 0 126 38 q36 38 36 129 l0 1134 l172 0 ZM337 1332.5 q-35 -35.5 -85 -35.5 q-50 0 -85 35.5 q-35 35.5 -35 84.5 q0 49 35 84.5 q35 35.5 85 35.5 q50 0 85 -35.5 q35 -35.5 35 -84.5 q0 -49 -35 -84.5 Z" /><glyph glyph-name="k" unicode="k" d="M360 607 l468 471 l211 0 l-464 -462 l495 -616 l-219 0 l-404 505 l-103 -96 l0 -409 l-172 0 l0 1506 l172 0 l0 -899 l16 0 Z" /><glyph glyph-name="l" unicode="l" d="M172 0 l0 1506 l172 0 l0 -1506 l-172 0 Z" /><glyph glyph-name="m" unicode="m" d="M162 0 l0 1078 l164 0 l0 -170 l16 0 q37 90 115 139.5 q78 49.5 186 49.5 q106 0 182.5 -51 q76.5 -51 115.5 -138 l16 0 q44 87 132 138 q88 51 198 51 q165 0 254 -91.5 q89 -91.5 89 -260.5 l0 -745 l-172 0 l0 705 q0 237 -227 237 q-110 0 -180 -72 q-70 -72 -70 -177 l0 -693 l-172 0 l0 732 q0 96 -61.5 153 q-61.5 57 -163.5 57 q-105 0 -177.5 -80 q-72.5 -80 -72.5 -194 l0 -668 l-172 0 Z" /><glyph glyph-name="n" unicode="n" d="M162 0 l0 1078 l164 0 l0 -170 l16 0 q86 189 324 189 q181 0 279 -103.5 q98 -103.5 98 -295.5 l0 -698 l-172 0 l0 656 q0 145 -62.5 215.5 q-62.5 70.5 -191.5 70.5 q-130 0 -206.5 -81.5 q-76.5 -81.5 -76.5 -222.5 l0 -638 l-172 0 Z" /><glyph glyph-name="o" unicode="o" d="M968.5 130.5 q-133.5 -149.5 -363.5 -149.5 q-230 0 -363.5 149.5 q-133.5 149.5 -133.5 408.5 q0 260 133 409 q133 149 364 149 q231 0 364 -149 q133 -149 133 -409 q0 -259 -133.5 -408.5 ZM369 241.5 q83 -105.5 236 -105.5 q153 0 236 105.5 q83 105.5 83 297.5 q0 192 -83 297.5 q-83 105.5 -236 105.5 q-153 0 -236 -105.5 q-83 -105.5 -83 -297.5 q0 -192 83 -297.5 Z" /><glyph glyph-name="p" unicode="p" d="M687 1097 q206 0 329.5 -152 q123.5 -152 123.5 -406 q0 -253 -124 -405.5 q-124 -152.5 -329 -152.5 q-115 0 -204 47.5 q-89 47.5 -133 133.5 l-16 0 l0 -522 l-172 0 l0 1438 l164 0 l0 -180 l16 0 q52 93 143.5 146 q91.5 53 201.5 53 ZM646 136 q148 0 232 107 q84 107 84 296 q0 189 -83.5 296 q-83.5 107 -231.5 107 q-146 0 -232 -108.5 q-86 -108.5 -86 -294.5 q0 -185 85.5 -294 q85.5 -109 231.5 -109 Z" /><glyph glyph-name="q" unicode="q" d="M559 1097 q110 0 203.5 -54 q93.5 -54 141.5 -145 l16 0 l0 180 l166 0 l0 -1438 l-174 0 l0 522 l-16 0 q-106 -181 -337 -181 q-206 0 -328.5 151.5 q-122.5 151.5 -122.5 406.5 q0 253 123 405.5 q123 152.5 328 152.5 ZM598 136 q148 0 233.5 108.5 q85.5 108.5 85.5 294.5 q0 185 -86 294 q-86 109 -232 109 q-147 0 -230 -107 q-83 -107 -83 -296 q0 -190 82.5 -296.5 q82.5 -106.5 229.5 -106.5 Z" /><glyph glyph-name="r" unicode="r" d="M162 0 l0 1078 l164 0 l0 -160 l16 0 q24 79 108 129 q84 50 191 50 q49 0 86 -5 l0 -172 q-35 10 -110 10 q-123 0 -203 -74 q-80 -74 -80 -188 l0 -668 l-172 0 Z" /><glyph glyph-name="s" unicode="s" d="M137 783 q0 134 115 224 q115 90 287 90 q169 0 279 -78 q110 -78 127 -211 l-170 0 q-18 66 -79.5 104.5 q-61.5 38.5 -157.5 38.5 q-97 0 -162.5 -45 q-65.5 -45 -65.5 -116 q0 -55 45.5 -91.5 q45.5 -36.5 141.5 -59.5 l166 -40 q154 -37 227.5 -107 q73.5 -70 73.5 -185 q0 -143 -123 -234.5 q-123 -91.5 -309 -91.5 q-180 0 -295 80 q-115 80 -129 214 l177 0 q22 -70 87 -109.5 q65 -39.5 166 -39.5 q109 0 179 47 q70 47 70 121 q0 110 -171 152 l-185 45 q-153 37 -223.5 106.5 q-70.5 69.5 -70.5 185.5 Z" /><glyph glyph-name="t" unicode="t" d="M234 1357 l172 0 l0 -279 l240 0 l0 -144 l-240 0 l0 -610 q0 -95 38 -138 q38 -43 122 -43 q37 0 80 4 l0 -145 q-57 -10 -101 -10 q-167 0 -239 67 q-72 67 -72 221 l0 654 l-174 0 l0 144 l174 0 l0 279 Z" /><glyph glyph-name="u" unicode="u" d="M1034 1078 l0 -1078 l-164 0 l0 169 l-16 0 q-41 -91 -126 -139.5 q-85 -48.5 -208 -48.5 q-180 0 -274 103 q-94 103 -94 296 l0 698 l172 0 l0 -656 q0 -147 58 -215.5 q58 -68.5 186 -68.5 q141 0 217.5 79.5 q76.5 79.5 76.5 222.5 l0 638 l172 0 Z" /><glyph glyph-name="v" unicode="v" d="M1042 1078 l-399 -1078 l-176 0 l-399 1078 l184 0 l295 -888 l16 0 l295 888 l184 0 Z" /><glyph glyph-name="w" unicode="w" d="M1518 1078 l-302 -1078 l-175 0 l-241 834 l-16 0 l-240 -834 l-174 0 l-302 1078 l174 0 l212 -862 l16 0 l241 862 l165 0 l241 -862 l16 0 l212 862 l173 0 Z" /><glyph glyph-name="x" unicode="x" d="M544 407 l-16 0 l-256 -407 l-195 0 l369 539 l-373 539 l205 0 l256 -401 l16 0 l253 401 l195 0 l-366 -532 l371 -546 l-204 0 l-255 407 Z" /><glyph glyph-name="y" unicode="y" d="M254 -390 q-41 0 -77 6 l0 147 q26 -5 72 -5 q75 0 119.5 40 q44.5 40 78.5 137 l20 64 l-399 1079 l186 0 l296 -887 l16 0 l295 887 l183 0 l-421 -1144 q-69 -187 -147 -255.5 q-78 -68.5 -222 -68.5 Z" /><glyph glyph-name="z" unicode="z" d="M137 0 l0 126 l622 792 l0 16 l-621 0 l0 144 l826 0 l0 -129 l-619 -789 l0 -16 l622 0 l0 -144 l-830 0 Z" /><glyph glyph-name="braceleft" unicode="{" d="M245 588 q219 -22 219 -234 l0 -295 q0 -120 46 -172.5 q46 -52.5 152 -52.5 l40 0 l0 -141 l-55 0 q-177 0 -262 84.5 q-85 84.5 -85 259.5 l0 255 q0 120 -48 166.5 q-48 46.5 -172 46.5 l0 190 q124 0 172 46.5 q48 46.5 48 166.5 l0 254 q0 175 85 259.5 q85 84.5 262 84.5 l55 0 l0 -141 l-40 0 q-106 0 -152 -52.5 q-46 -52.5 -46 -172.5 l0 -294 q0 -212 -219 -234 l0 -24 Z" /><glyph glyph-name="bar" unicode="|" d="M414 -307 l-146 0 l0 1813 l146 0 l0 -1813 Z" /><glyph glyph-name="braceright" unicode="}" d="M537 588 l0 24 q-219 22 -219 234 l0 294 q0 120 -46 172.5 q-46 52.5 -152 52.5 l-40 0 l0 141 l55 0 q177 0 262 -84.5 q85 -84.5 85 -259.5 l0 -254 q0 -120 48 -166.5 q48 -46.5 172 -46.5 l0 -190 q-124 0 -172 -46.5 q-48 -46.5 -48 -166.5 l0 -255 q0 -175 -85 -259.5 q-85 -84.5 -262 -84.5 l-55 0 l0 141 l40 0 q106 0 152 52.5 q46 52.5 46 172.5 l0 295 q0 212 219 234 Z" /><glyph glyph-name="asciitilde" unicode="~" d="M557 636 q-55 56 -90.5 78.5 q-35.5 22.5 -69.5 22.5 q-130 0 -141 -179 l-160 0 q-1 161 79 252.5 q80 91.5 226 91.5 q64 0 122.5 -30 q58.5 -30 123.5 -95 q52 -55 88 -77.5 q36 -22.5 70 -22.5 q131 0 142 179 l159 0 q1 -161 -77.5 -252.5 q-78.5 -91.5 -221.5 -91.5 q-67 0 -125.5 29 q-58.5 29 -124.5 95 Z" /><glyph glyph-name="nonbreakingspace" unicode=" " d="" /><glyph glyph-name="exclamdown" unicode="¡" d="M218 -342 l17 964 l166 0 l17 -964 l-200 0 ZM418.5 880 q-38.5 -39 -99.5 -39 q-61 0 -100 39.5 q-39 39.5 -39 100.5 q0 61 39 100 q39 39 100 39 q61 0 99.5 -39 q38.5 -39 38.5 -100 q0 -62 -38.5 -101 Z" /><glyph glyph-name="cent" unicode="¢" d="M1167 508 q-22 -140 -129.5 -230 q-107.5 -90 -269.5 -109 l0 -169 l-172 0 l0 171 q-195 30 -315 178.5 q-120 148.5 -120 375.5 q0 224 120 371 q120 147 315 176 l0 171 l172 0 l0 -169 q159 -21 268.5 -113.5 q109.5 -92.5 130.5 -230.5 l-174 0 q-31 92 -112 143 q-81 51 -196 51 q-149 0 -247.5 -110 q-98.5 -110 -98.5 -289 q0 -182 99 -294 q99 -112 247 -112 q126 0 205 49 q79 49 103 140 l174 0 Z" /><glyph glyph-name="sterling" unicode="£" d="M404 154 l786 0 l0 -154 l-1062 0 l0 152 q133 30 220.5 129.5 q87.5 99.5 87.5 219.5 q0 66 -24 152 l-284 0 l0 144 l234 0 q-61 171 -61 263 q0 196 137.5 306.5 q137.5 110.5 379.5 110.5 q187 0 300 -53 l0 -160 q-38 22 -121.5 38 q-83.5 16 -169.5 16 q-161 0 -251.5 -67.5 q-90.5 -67.5 -90.5 -186.5 q0 -97 60 -267 l471 0 l0 -144 l-424 0 q21 -84 21 -145 q0 -117 -59 -205 q-59 -88 -150 -135 l0 -14 Z" /><glyph glyph-name="currency" unicode="¤" d="M478.5 842.5 q-77.5 -77.5 -77.5 -186.5 q0 -109 77.5 -186.5 q77.5 -77.5 186.5 -77.5 q109 0 186.5 77.5 q77.5 77.5 77.5 186.5 q0 109 -77.5 186.5 q-77.5 77.5 -186.5 77.5 q-109 0 -186.5 -77.5 ZM1157 1043 l-168 -169 q67 -99 67 -218 q0 -121 -68 -219 l169 -169 l-106 -106 l-169 169 q-97 -66 -217 -66 q-119 0 -219 67 l-169 -170 l-106 106 l170 170 q-67 100 -67 218 q0 118 67 217 l-170 170 l106 106 l169 -169 q100 67 219 67 q119 0 218 -67 l168 169 l106 -106 Z" /><glyph glyph-name="yen" unicode="¥" d="M1031 269 l-277 0 l0 -269 l-180 0 l0 269 l-277 0 l0 136 l277 0 l0 166 l-277 0 l0 136 l223 0 l-458 736 l205 0 l389 -641 l16 0 l389 641 l205 0 l-458 -736 l223 0 l0 -136 l-277 0 l0 -166 l277 0 l0 -136 Z" /><glyph glyph-name="brokenbar" unicode="¦" d="M414 781 l-146 0 l0 725 l146 0 l0 -725 ZM414 -307 l-146 0 l0 725 l146 0 l0 -725 Z" /><glyph glyph-name="section" unicode="§" d="M451 400 l83 -18 q92 0 155 55 q63 55 63 136 q0 63 -44 106 q-44 43 -126 61 l-83 18 q-91 0 -155 -56 q-64 -56 -64 -135 q0 -62 44.5 -105.5 q44.5 -43.5 126.5 -61.5 ZM521 -257 q-172 0 -285.5 83 q-113.5 83 -123.5 216 l176 0 q10 -69 77 -111 q67 -42 165 -42 q102 0 165.5 44 q63.5 44 63.5 114 q0 56 -47 94 q-47 38 -151 66 l-141 38 q-164 44 -240.5 113.5 q-76.5 69.5 -76.5 174.5 q0 95 58.5 164 q58.5 69 164.5 98 l0 16 q-219 85 -219 273 q0 140 111 226.5 q111 86.5 290 86.5 q167 0 274 -78 q107 -78 124 -211 l-173 0 q-11 65 -73 104 q-62 39 -156 39 q-101 0 -162.5 -43.5 q-61.5 -43.5 -61.5 -113.5 q0 -57 46 -95 q46 -38 149 -66 l141 -38 q162 -43 237.5 -111 q75.5 -68 75.5 -169 q0 -103 -71 -182 q-71 -79 -183 -101 l0 -16 q254 -57 254 -257 q0 -139 -114.5 -227.5 q-114.5 -88.5 -293.5 -88.5 Z" /><glyph glyph-name="dieresis" unicode="¨" d="M429.5 1298.5 q-35.5 -35.5 -85.5 -35.5 q-50 0 -85.5 35.5 q-35.5 35.5 -35.5 85.5 q0 50 35.5 85.5 q35.5 35.5 85.5 35.5 q50 0 85.5 -35.5 q35.5 -35.5 35.5 -85.5 q0 -50 -35.5 -85.5 ZM833.5 1298.5 q-35.5 -35.5 -85.5 -35.5 q-50 0 -85.5 35.5 q-35.5 35.5 -35.5 85.5 q0 50 35.5 85.5 q35.5 35.5 85.5 35.5 q50 0 85.5 -35.5 q35.5 -35.5 35.5 -85.5 q0 -50 -35.5 -85.5 Z" /><glyph glyph-name="copyright" unicode="©" d="M871 -168 q-165 0 -312.5 61.5 q-147.5 61.5 -252.5 167 q-105 105.5 -166.5 252.5 q-61.5 147 -61.5 313 q0 222 104 404 q104 182 286 286 q182 104 403 104 q166 0 313.5 -61 q147.5 -61 252.5 -166.5 q105 -105.5 166 -253 q61 -147.5 61 -313.5 q0 -222 -104 -404 q-104 -182 -286 -286 q-182 -104 -403 -104 ZM871 -28 q137 0 258 50.5 q121 50.5 207.5 137 q86.5 86.5 136.5 208 q50 121.5 50 258.5 q0 183 -85 333 q-85 150 -234.5 235.5 q-149.5 85.5 -332.5 85.5 q-137 0 -258 -50.5 q-121 -50.5 -207.5 -137 q-86.5 -86.5 -136.5 -208 q-50 -121.5 -50 -258.5 q0 -137 50.5 -258 q50.5 -121 137 -208 q86.5 -87 207.5 -137.5 q121 -50.5 257 -50.5 ZM1249 768 l-139 0 q-18 71 -78.5 113.5 q-60.5 42.5 -143.5 42.5 q-116 0 -184.5 -80 q-68.5 -80 -68.5 -216 q0 -138 68.5 -219 q68.5 -81 184.5 -81 q88 0 146 39.5 q58 39.5 76 111.5 l139 0 q-19 -126 -116.5 -200.5 q-97.5 -74.5 -243.5 -74.5 q-181 0 -288.5 115 q-107.5 115 -107.5 309 q0 192 107 306 q107 114 288 114 q143 0 242 -77 q99 -77 119 -203 Z" /><glyph glyph-name="ordfeminine" unicode="ª" d="M438 652 q103 0 171.5 62.5 q68.5 62.5 68.5 154.5 l0 96 l-227 -17 q-94 -6 -142.5 -43.5 q-48.5 -37.5 -48.5 -104.5 q0 -67 48.5 -107.5 q48.5 -40.5 129.5 -40.5 ZM390 515 q-134 0 -216.5 77 q-82.5 77 -82.5 202 q0 123 87.5 194 q87.5 71 251.5 81 l245 15 l0 80 q0 75 -52 116 q-52 41 -147 41 q-75 0 -125 -29.5 q-50 -29.5 -60 -80.5 l-165 0 q11 115 108 183.5 q97 68.5 248 68.5 q167 0 261 -81 q94 -81 94 -224 l0 -618 l-155 0 l0 119 l-16 0 q-40 -69 -112 -106.5 q-72 -37.5 -164 -37.5 Z" /><glyph glyph-name="guillemotleft" unicode="«" d="M382 573 l0 -16 l351 -412 l-204 0 l-350 416 l0 8 l350 416 l204 0 l-351 -412 ZM861 573 l0 -16 l351 -412 l-205 0 l-350 416 l0 8 l351 416 l204 0 l-351 -412 Z" /><glyph glyph-name="logicalnot" unicode="¬" d="M1138 654 l0 -528 l-148 0 l0 380 l-800 0 l0 148 l948 0 Z" /><glyph glyph-name="registered" unicode="®" d="M630 449 q-218 0 -370 152 q-152 152 -152 370 q0 144 69.5 264 q69.5 120 189.5 189 q120 69 263 69 q108 0 204.5 -41 q96.5 -41 166 -110.5 q69.5 -69.5 110.5 -166 q41 -96.5 41 -204.5 q0 -143 -69 -263 q-69 -120 -189 -189.5 q-120 -69.5 -264 -69.5 ZM333.5 674.5 q121.5 -121.5 296.5 -121.5 q175 0 296.5 121.5 q121.5 121.5 121.5 296.5 q0 175 -121 296.5 q-121 121.5 -297 121.5 q-175 0 -296.5 -121.5 q-121.5 -121.5 -121.5 -296.5 q0 -175 121.5 -296.5 ZM527 733 l-98 0 l0 499 l249 0 q75 0 124.5 -43.5 q49.5 -43.5 49.5 -109.5 q0 -122 -116 -150 l138 -196 l-120 0 l-129 183 l-98 0 l0 -183 ZM527 1143 l0 -143 l124 0 q92 0 92 74 q0 69 -89 69 l-127 0 Z" /><glyph glyph-name="macron" unicode="¯" d="M861 1422 l0 -136 l-674 0 l0 136 l674 0 Z" /><glyph glyph-name="degree" unicode="°" d="M682.5 907.5 q-92.5 -94.5 -232.5 -94.5 q-140 0 -232 94 q-92 94 -92 231 q0 137 92 231 q92 94 232 94 q140 0 232.5 -94.5 q92.5 -94.5 92.5 -230.5 q0 -136 -92.5 -230.5 ZM450 941 q89 0 144 57 q55 57 55 140 q0 84 -55.5 140.5 q-55.5 56.5 -143.5 56.5 q-88 0 -142.5 -56.5 q-54.5 -56.5 -54.5 -140.5 q0 -83 54.5 -140 q54.5 -57 142.5 -57 Z" /><glyph glyph-name="plusminus" unicode="±" d="M1173 112 l-1018 0 l0 148 l1018 0 l0 -148 ZM738 662 l0 -291 l-148 0 l0 291 l-435 0 l0 136 l435 0 l0 291 l148 0 l0 -291 l435 0 l0 -136 l-435 0 Z" /><glyph glyph-name="twosuperior" unicode="²" d="M95 1539 q0 126 87.5 206 q87.5 80 226.5 80 q135 0 221.5 -73 q86.5 -73 86.5 -187 q0 -70 -42.5 -140 q-42.5 -70 -160.5 -188 l-185 -186 l0 -16 l401 0 l0 -135 l-627 0 l0 110 l301 310 q91 92 122 139.5 q31 47.5 31 96.5 q0 60 -43 99.5 q-43 39.5 -110 39.5 q-70 0 -113.5 -43 q-43.5 -43 -43.5 -113 l0 -2 l-152 0 l0 2 Z" /><glyph glyph-name="threesuperior" unicode="³" d="M311 1300 l0 122 l109 0 q69 0 112 38.5 q43 38.5 43 99.5 q0 61 -42 97 q-42 36 -113 36 q-69 0 -112.5 -37.5 q-43.5 -37.5 -48.5 -101.5 l-151 0 q5 124 90.5 196.5 q85.5 72.5 226.5 72.5 q132 0 219.5 -68.5 q87.5 -68.5 87.5 -172.5 q0 -77 -45.5 -133.5 q-45.5 -56.5 -120.5 -72.5 l0 -16 q92 -7 147 -66 q55 -59 55 -149 q0 -116 -97 -193 q-97 -77 -245 -77 q-146 0 -238.5 74.5 q-92.5 74.5 -97.5 197.5 l156 0 q5 -63 54 -100.5 q49 -37.5 127 -37.5 q77 0 126 40.5 q49 40.5 49 104.5 q0 68 -48 107 q-48 39 -131 39 l-112 0 Z" /><glyph glyph-name="acute" unicode="´" d="M480 1263 l-194 0 l252 338 l220 0 l-278 -338 Z" /><glyph glyph-name="mu" unicode="µ&#x3bc;" d="M162 -360 l0 1438 l172 0 l0 -654 q0 -286 244 -286 q130 0 207 81 q77 81 77 221 l0 638 l172 0 l0 -809 q0 -73 22 -100.5 q22 -27.5 78 -27.5 q25 0 49 4 l0 -145 q-37 -10 -82 -10 q-111 0 -162 37.5 q-51 37.5 -67 130.5 l-2 12 l-16 0 q-43 -96 -110.5 -142.5 q-67.5 -46.5 -173.5 -46.5 q-160 0 -220 129 l-16 0 l0 -470 l-172 0 Z" /><glyph glyph-name="paragraph" unicode="¶" d="M834 -220 l-180 0 l0 795 l-20 0 q-202 0 -338 121.5 q-136 121.5 -136 305.5 q0 191 136.5 316 q136.5 125 338.5 125 l199 0 l0 -1663 ZM981 -220 l0 1663 l180 0 l0 -1663 l-180 0 Z" /><glyph glyph-name="periodcentered" unicode="·" d="M315 605 q-54 0 -93.5 39.5 q-39.5 39.5 -39.5 93.5 q0 55 39.5 94 q39.5 39 93.5 39 q55 0 94 -39 q39 -39 39 -94 q0 -54 -39 -93.5 q-39 -39.5 -94 -39.5 Z" /><glyph glyph-name="cedilla" unicode="¸" d="M394 -234 l0 84 l70 172 l123 0 l0 -22 l-51 -132 q102 0 158.5 -43 q56.5 -43 56.5 -120 q0 -85 -65.5 -137 q-65.5 -52 -178.5 -52 q-85 0 -146 18 l0 108 q48 -14 122 -14 q119 0 119 73 q0 35 -35 50 q-35 15 -114 15 l-59 0 Z" /><glyph glyph-name="onesuperior" unicode="¹" d="M321 900 l0 742 l-16 0 q-14 -9 -116 -82.5 q-102 -73.5 -104 -75.5 l0 152 q87 65 236 167 l156 0 l0 -903 l-156 0 Z" /><glyph glyph-name="ordmasculine" unicode="º" d="M822.5 641.5 q-113.5 -126.5 -310.5 -126.5 q-197 0 -310.5 126.5 q-113.5 126.5 -113.5 347.5 q0 220 113.5 347 q113.5 127 310.5 127 q197 0 310.5 -126.5 q113.5 -126.5 113.5 -347.5 q0 -221 -113.5 -347.5 ZM327.5 745.5 q65.5 -86.5 184.5 -86.5 q119 0 185 86.5 q66 86.5 66 243.5 q0 158 -65.5 244 q-65.5 86 -185.5 86 q-119 0 -184.5 -86.5 q-65.5 -86.5 -65.5 -243.5 q0 -157 65.5 -243.5 Z" /><glyph glyph-name="guillemotright" unicode="»" d="M530 573 l-351 412 l204 0 l351 -416 l0 -8 l-350 -416 l-205 0 l351 412 l0 16 ZM1009 573 l-351 412 l204 0 l350 -416 l0 -8 l-350 -416 l-204 0 l351 412 l0 16 Z" /><glyph glyph-name="onequarter" unicode="¼" d="M321 540 l0 742 l-16 0 q-14 -9 -116 -82.5 q-102 -73.5 -104 -75.5 l0 152 q87 65 236 167 l156 0 l0 -903 l-156 0 ZM671 0 l-167 0 l335 758 l302 685 l167 0 l-318 -721 l-319 -722 ZM1587 0 l0 170 l-452 0 l0 141 q77 141 378 592 l230 0 l0 -600 l121 0 l0 -133 l-121 0 l0 -170 l-156 0 ZM1285 307 l0 -8 l304 0 l0 477 l-6 0 q-203 -300 -298 -469 Z" /><glyph glyph-name="onehalf" unicode="½" d="M321 540 l0 742 l-16 0 q-14 -9 -116 -82.5 q-102 -73.5 -104 -75.5 l0 152 q87 65 236 167 l156 0 l0 -903 l-156 0 ZM671 0 l-167 0 l335 758 l302 685 l167 0 l-318 -721 l-319 -722 ZM1219 639 q0 126 87.5 206 q87.5 80 226.5 80 q135 0 221.5 -73 q86.5 -73 86.5 -187 q0 -70 -42.5 -140 q-42.5 -70 -160.5 -188 l-185 -186 l0 -16 l401 0 l0 -135 l-627 0 l0 110 l301 310 q91 92 122 139.5 q31 47.5 31 96.5 q0 60 -43 99.5 q-43 39.5 -110 39.5 q-70 0 -113.5 -43 q-43.5 -43 -43.5 -113 l0 -2 l-152 0 l0 2 Z" /><glyph glyph-name="threequarters" unicode="¾" d="M311 940 l0 122 l109 0 q69 0 112 38.5 q43 38.5 43 99.5 q0 61 -42 97 q-42 36 -113 36 q-69 0 -112.5 -37.5 q-43.5 -37.5 -48.5 -101.5 l-151 0 q5 124 90.5 196.5 q85.5 72.5 226.5 72.5 q132 0 219.5 -68.5 q87.5 -68.5 87.5 -172.5 q0 -77 -45.5 -133.5 q-45.5 -56.5 -120.5 -72.5 l0 -16 q92 -7 147 -66 q55 -59 55 -149 q0 -116 -97 -193 q-97 -77 -245 -77 q-146 0 -238.5 74.5 q-92.5 74.5 -97.5 197.5 l156 0 q5 -63 54 -100.5 q49 -37.5 127 -37.5 q77 0 126 40.5 q49 40.5 49 104.5 q0 68 -48 107 q-48 39 -131 39 l-112 0 ZM861 0 l-167 0 l335 758 l302 685 l167 0 l-318 -721 l-319 -722 ZM1777 0 l0 170 l-452 0 l0 141 q46 85 122.5 204.5 q76.5 119.5 255.5 387.5 l230 0 l0 -600 l121 0 l0 -133 l-121 0 l0 -170 l-156 0 ZM1475 307 l0 -8 l304 0 l0 477 l-6 0 q-203 -300 -298 -469 Z" /><glyph glyph-name="questiondown" unicode="¿" d="M970 35 q-8 -171 -121 -280 q-113 -109 -314 -109 q-188 0 -306.5 103 q-118.5 103 -118.5 261 q0 216 209 343 q94 56 128 106 q34 50 34 130 l0 65 l175 0 l0 -92 q1 -98 -46.5 -169.5 q-47.5 -71.5 -152.5 -134.5 q-87 -54 -124 -107.5 q-37 -53.5 -37 -131.5 q0 -96 67.5 -156.5 q67.5 -60.5 178.5 -60.5 q112 0 180.5 62.5 q68.5 62.5 76.5 170.5 l171 0 ZM656.5 879 q-38.5 -39 -99.5 -39 q-61 0 -100 39 q-39 39 -39 100 q0 60 39.5 100 q39.5 40 99.5 40 q60 0 99 -40 q39 -40 39 -100 q0 -61 -38.5 -100 Z" /><glyph glyph-name="Agrave" unicode="à" d="M1122 0 l-145 413 l-574 0 l-145 -413 l-189 0 l532 1443 l178 0 l532 -1443 l-189 0 ZM682 1210 l-226 -644 l468 0 l-226 644 l-16 0 ZM584 1575 l-332 298 l226 0 l310 -298 l-204 0 Z" /><glyph glyph-name="Aacute" unicode="á" d="M1122 0 l-145 413 l-574 0 l-145 -413 l-189 0 l532 1443 l178 0 l532 -1443 l-189 0 ZM682 1210 l-226 -644 l468 0 l-226 644 l-16 0 ZM788 1575 l-204 0 l310 298 l226 0 l-332 -298 Z" /><glyph glyph-name="Acircumflex" unicode="â" d="M1122 0 l-145 413 l-574 0 l-145 -413 l-189 0 l532 1443 l178 0 l532 -1443 l-189 0 ZM682 1210 l-226 -644 l468 0 l-226 644 l-16 0 ZM608 1873 l164 0 l300 -298 l-202 0 l-172 177 l-16 0 l-172 -177 l-202 0 l300 298 Z" /><glyph glyph-name="Atilde" unicode="ã" d="M1122 0 l-145 413 l-574 0 l-145 -413 l-189 0 l532 1443 l178 0 l532 -1443 l-189 0 ZM682 1210 l-226 -644 l468 0 l-226 644 l-16 0 ZM835 1580 q-44 0 -82.5 16 q-38.5 16 -64.5 39 q-26 23 -48 46.5 q-22 23.5 -44.5 39.5 q-22.5 16 -44.5 16 q-53 0 -75.5 -36 q-22.5 -36 -22.5 -121 l-142 0 q0 136 61.5 213.5 q61.5 77.5 170.5 77.5 q44 0 82.5 -16 q38.5 -16 64.5 -39.5 q26 -23.5 48 -46.5 q22 -23 44.5 -39 q22.5 -16 44.5 -16 q53 0 75.5 36 q22.5 36 22.5 121 l142 0 q0 -136 -61.5 -213.5 q-61.5 -77.5 -170.5 -77.5 Z" /><glyph glyph-name="Adieresis" unicode="ä" d="M1122 0 l-145 413 l-574 0 l-145 -413 l-189 0 l532 1443 l178 0 l532 -1443 l-189 0 ZM682 1210 l-226 -644 l468 0 l-226 644 l-16 0 ZM573.5 1610.5 q-35.5 -35.5 -85.5 -35.5 q-50 0 -85.5 35.5 q-35.5 35.5 -35.5 85.5 q0 50 35.5 85.5 q35.5 35.5 85.5 35.5 q50 0 85.5 -35.5 q35.5 -35.5 35.5 -85.5 q0 -50 -35.5 -85.5 ZM977.5 1610.5 q-35.5 -35.5 -85.5 -35.5 q-50 0 -85.5 35.5 q-35.5 35.5 -35.5 85.5 q0 50 35.5 85.5 q35.5 35.5 85.5 35.5 q50 0 85.5 -35.5 q35.5 -35.5 35.5 -85.5 q0 -50 -35.5 -85.5 Z" /><glyph glyph-name="Aring" unicode="å" d="M1122 0 l-145 413 l-574 0 l-145 -413 l-189 0 l532 1443 l178 0 l532 -1443 l-189 0 ZM682 1210 l-226 -644 l468 0 l-226 644 l-16 0 ZM831 1608 q-58 -57 -141 -57 q-83 0 -141 57 q-58 57 -58 140 q0 83 58 140 q58 57 141 57 q83 0 141 -57 q58 -57 58 -140 q0 -83 -58 -140 ZM614.5 1673 q29.5 -30 75.5 -30 q46 0 75.5 30 q29.5 30 29.5 75 q0 46 -29.5 75.5 q-29.5 29.5 -75.5 29.5 q-46 0 -75.5 -29.5 q-29.5 -29.5 -29.5 -75.5 q0 -45 29.5 -75 Z" /><glyph glyph-name="AE" unicode="æ" d="M839 1292 l-310 -680 l457 0 l0 680 l-147 0 ZM986 0 l0 459 l-527 0 l-209 -459 l-181 0 l651 1443 l1104 0 l0 -162 l-658 0 l0 -473 l621 0 l0 -160 l-621 0 l0 -486 l658 0 l0 -162 l-838 0 Z" /><glyph glyph-name="Ccedilla" unicode="ç" d="M1348 1008 l-183 0 q-36 140 -144 221.5 q-108 81.5 -257 81.5 q-208 0 -329.5 -159 q-121.5 -159 -121.5 -431 q0 -272 122 -430.5 q122 -158.5 330 -158.5 q151 0 258.5 72.5 q107.5 72.5 141.5 197.5 l183 0 q-34 -185 -174 -301 q-140 -116 -347 -133 l-39 -100 q102 0 158.5 -43 q56.5 -43 56.5 -120 q0 -85 -65.5 -137 q-65.5 -52 -178.5 -52 q-85 0 -146 18 l0 108 q48 -14 122 -14 q119 0 119 73 q0 35 -35 50 q-35 15 -114 15 l-59 0 l0 84 l49 119 q-264 25 -415.5 225.5 q-151.5 200.5 -151.5 526.5 q0 349 171 552.5 q171 203.5 465 203.5 q228 0 390 -130 q162 -130 194 -339 Z" /><glyph glyph-name="Egrave" unicode="è" d="M1078 162 l0 -162 l-894 0 l0 1443 l894 0 l0 -162 l-714 0 l0 -463 l677 0 l0 -160 l-677 0 l0 -496 l714 0 ZM525 1575 l-332 298 l226 0 l310 -298 l-204 0 Z" /><glyph glyph-name="Eacute" unicode="é" d="M1078 162 l0 -162 l-894 0 l0 1443 l894 0 l0 -162 l-714 0 l0 -463 l677 0 l0 -160 l-677 0 l0 -496 l714 0 ZM729 1575 l-204 0 l310 298 l226 0 l-332 -298 Z" /><glyph glyph-name="Ecircumflex" unicode="ê" d="M1078 162 l0 -162 l-894 0 l0 1443 l894 0 l0 -162 l-714 0 l0 -463 l677 0 l0 -160 l-677 0 l0 -496 l714 0 ZM549 1873 l164 0 l300 -298 l-202 0 l-172 177 l-16 0 l-172 -177 l-202 0 l300 298 Z" /><glyph glyph-name="Edieresis" unicode="ë" d="M1078 162 l0 -162 l-894 0 l0 1443 l894 0 l0 -162 l-714 0 l0 -463 l677 0 l0 -160 l-677 0 l0 -496 l714 0 ZM514.5 1610.5 q-35.5 -35.5 -85.5 -35.5 q-50 0 -85.5 35.5 q-35.5 35.5 -35.5 85.5 q0 50 35.5 85.5 q35.5 35.5 85.5 35.5 q50 0 85.5 -35.5 q35.5 -35.5 35.5 -85.5 q0 -50 -35.5 -85.5 ZM918.5 1610.5 q-35.5 -35.5 -85.5 -35.5 q-50 0 -85.5 35.5 q-35.5 35.5 -35.5 85.5 q0 50 35.5 85.5 q35.5 35.5 85.5 35.5 q50 0 85.5 -35.5 q35.5 -35.5 35.5 -85.5 q0 -50 -35.5 -85.5 Z" /><glyph glyph-name="Igrave" unicode="ì" d="M364 0 l-180 0 l0 1443 l180 0 l0 -1443 ZM168 1575 l-332 298 l226 0 l310 -298 l-204 0 Z" /><glyph glyph-name="Iacute" unicode="í" d="M364 0 l-180 0 l0 1443 l180 0 l0 -1443 ZM372 1575 l-204 0 l310 298 l226 0 l-332 -298 Z" /><glyph glyph-name="Icircumflex" unicode="î" d="M364 0 l-180 0 l0 1443 l180 0 l0 -1443 ZM192 1873 l164 0 l300 -298 l-202 0 l-172 177 l-16 0 l-172 -177 l-202 0 l300 298 Z" /><glyph glyph-name="Idieresis" unicode="ï" d="M364 0 l-180 0 l0 1443 l180 0 l0 -1443 ZM157.5 1610.5 q-35.5 -35.5 -85.5 -35.5 q-50 0 -85.5 35.5 q-35.5 35.5 -35.5 85.5 q0 50 35.5 85.5 q35.5 35.5 85.5 35.5 q50 0 85.5 -35.5 q35.5 -35.5 35.5 -85.5 q0 -50 -35.5 -85.5 ZM561.5 1610.5 q-35.5 -35.5 -85.5 -35.5 q-50 0 -85.5 35.5 q-35.5 35.5 -35.5 85.5 q0 50 35.5 85.5 q35.5 35.5 85.5 35.5 q50 0 85.5 -35.5 q35.5 -35.5 35.5 -85.5 q0 -50 -35.5 -85.5 Z" /><glyph glyph-name="Eth" unicode="ð" d="M364 162 l303 0 q241 0 375 147 q134 147 134 411 q0 265 -134.5 413 q-134.5 148 -374.5 148 l-303 0 l0 -455 l248 0 l0 -163 l-248 0 l0 -501 ZM184 1443 l495 0 q321 0 501 -190.5 q180 -190.5 180 -530.5 q0 -341 -179.5 -531.5 q-179.5 -190.5 -501.5 -190.5 l-495 0 l0 663 l-158 0 l0 163 l158 0 l0 617 Z" /><glyph glyph-name="Ntilde" unicode="ñ" d="M362 0 l-178 0 l0 1443 l175 0 l783 -1123 l16 0 l0 1123 l178 0 l0 -1443 l-175 0 l-783 1119 l-16 0 l0 -1119 ZM905 1580 q-44 0 -82.5 16 q-38.5 16 -64.5 39 q-26 23 -48 46.5 q-22 23.5 -44.5 39.5 q-22.5 16 -44.5 16 q-53 0 -75.5 -36 q-22.5 -36 -22.5 -121 l-142 0 q0 136 61.5 213.5 q61.5 77.5 170.5 77.5 q44 0 82.5 -16 q38.5 -16 64.5 -39.5 q26 -23.5 48 -46.5 q22 -23 44.5 -39 q22.5 -16 44.5 -16 q53 0 75.5 36 q22.5 36 22.5 121 l142 0 q0 -136 -61.5 -213.5 q-61.5 -77.5 -170.5 -77.5 Z" /><glyph glyph-name="Ograve" unicode="ò" d="M791 1477 q307 0 483.5 -203.5 q176.5 -203.5 176.5 -551.5 q0 -348 -176.5 -552 q-176.5 -204 -483.5 -204 q-309 0 -486 204 q-177 204 -177 552 q0 348 178.5 551.5 q178.5 203.5 484.5 203.5 ZM791 1311 q-220 0 -349 -159 q-129 -159 -129 -430 q0 -271 127.5 -430.5 q127.5 -159.5 350.5 -159.5 q221 0 348 160 q127 160 127 430 q0 272 -127 430.5 q-127 158.5 -348 158.5 ZM685 1575 l-332 298 l226 0 l310 -298 l-204 0 Z" /><glyph glyph-name="Oacute" unicode="ó" d="M791 1477 q307 0 483.5 -203.5 q176.5 -203.5 176.5 -551.5 q0 -348 -176.5 -552 q-176.5 -204 -483.5 -204 q-309 0 -486 204 q-177 204 -177 552 q0 348 178.5 551.5 q178.5 203.5 484.5 203.5 ZM791 1311 q-220 0 -349 -159 q-129 -159 -129 -430 q0 -271 127.5 -430.5 q127.5 -159.5 350.5 -159.5 q221 0 348 160 q127 160 127 430 q0 272 -127 430.5 q-127 158.5 -348 158.5 ZM889 1575 l-204 0 l310 298 l226 0 l-332 -298 Z" /><glyph glyph-name="Ocircumflex" unicode="ô" d="M791 1477 q307 0 483.5 -203.5 q176.5 -203.5 176.5 -551.5 q0 -348 -176.5 -552 q-176.5 -204 -483.5 -204 q-309 0 -486 204 q-177 204 -177 552 q0 348 178.5 551.5 q178.5 203.5 484.5 203.5 ZM791 1311 q-220 0 -349 -159 q-129 -159 -129 -430 q0 -271 127.5 -430.5 q127.5 -159.5 350.5 -159.5 q221 0 348 160 q127 160 127 430 q0 272 -127 430.5 q-127 158.5 -348 158.5 ZM709 1873 l164 0 l300 -298 l-202 0 l-172 177 l-16 0 l-172 -177 l-202 0 l300 298 Z" /><glyph glyph-name="Otilde" unicode="õ" d="M791 1477 q307 0 483.5 -203.5 q176.5 -203.5 176.5 -551.5 q0 -348 -176.5 -552 q-176.5 -204 -483.5 -204 q-309 0 -486 204 q-177 204 -177 552 q0 348 178.5 551.5 q178.5 203.5 484.5 203.5 ZM791 1311 q-220 0 -349 -159 q-129 -159 -129 -430 q0 -271 127.5 -430.5 q127.5 -159.5 350.5 -159.5 q221 0 348 160 q127 160 127 430 q0 272 -127 430.5 q-127 158.5 -348 158.5 ZM936 1580 q-44 0 -82.5 16 q-38.5 16 -64.5 39 q-26 23 -48 46.5 q-22 23.5 -44.5 39.5 q-22.5 16 -44.5 16 q-53 0 -75.5 -36 q-22.5 -36 -22.5 -121 l-142 0 q0 136 61.5 213.5 q61.5 77.5 170.5 77.5 q44 0 82.5 -16 q38.5 -16 64.5 -39.5 q26 -23.5 48 -46.5 q22 -23 44.5 -39 q22.5 -16 44.5 -16 q53 0 75.5 36 q22.5 36 22.5 121 l142 0 q0 -136 -61.5 -213.5 q-61.5 -77.5 -170.5 -77.5 Z" /><glyph glyph-name="Odieresis" unicode="ö" d="M791 1477 q307 0 483.5 -203.5 q176.5 -203.5 176.5 -551.5 q0 -348 -176.5 -552 q-176.5 -204 -483.5 -204 q-309 0 -486 204 q-177 204 -177 552 q0 348 178.5 551.5 q178.5 203.5 484.5 203.5 ZM791 1311 q-220 0 -349 -159 q-129 -159 -129 -430 q0 -271 127.5 -430.5 q127.5 -159.5 350.5 -159.5 q221 0 348 160 q127 160 127 430 q0 272 -127 430.5 q-127 158.5 -348 158.5 ZM674.5 1610.5 q-35.5 -35.5 -85.5 -35.5 q-50 0 -85.5 35.5 q-35.5 35.5 -35.5 85.5 q0 50 35.5 85.5 q35.5 35.5 85.5 35.5 q50 0 85.5 -35.5 q35.5 -35.5 35.5 -85.5 q0 -50 -35.5 -85.5 ZM1078.5 1610.5 q-35.5 -35.5 -85.5 -35.5 q-50 0 -85.5 35.5 q-35.5 35.5 -35.5 85.5 q0 50 35.5 85.5 q35.5 35.5 85.5 35.5 q50 0 85.5 -35.5 q35.5 -35.5 35.5 -85.5 q0 -50 -35.5 -85.5 Z" /><glyph glyph-name="multiply" unicode="×" d="M664 475 l-308 -307 l-104 104 l307 308 l-307 308 l104 104 l308 -307 l308 307 l104 -104 l-307 -308 l307 -308 l-104 -104 l-308 307 Z" /><glyph glyph-name="Oslash" unicode="ø" d="M1158 1127 l-675 -881 q122 -114 308 -114 q221 0 348 160 q127 160 127 430 q0 249 -108 405 ZM403 346 l672 871 q-117 94 -284 94 q-220 0 -349 -159 q-129 -159 -129 -430 q0 -227 90 -376 ZM1382 1419 l-110 -143 q179 -202 179 -554 q0 -348 -176.5 -552 q-176.5 -204 -483.5 -204 q-248 0 -418 137 l-115 -150 l-100 76 l127 165 q-157 200 -157 528 q0 348 178.5 551.5 q178.5 203.5 484.5 203.5 q231 0 392 -119 l101 130 l98 -69 Z" /><glyph glyph-name="Ugrave" unicode="ù" d="M369 1443 l0 -935 q0 -167 104.5 -271.5 q104.5 -104.5 288.5 -104.5 q184 0 288.5 104.5 q104.5 104.5 104.5 271.5 l0 935 l180 0 l0 -947 q0 -235 -154.5 -382.5 q-154.5 -147.5 -418.5 -147.5 q-264 0 -418.5 147.5 q-154.5 147.5 -154.5 382.5 l0 947 l180 0 ZM656 1575 l-332 298 l226 0 l310 -298 l-204 0 Z" /><glyph glyph-name="Uacute" unicode="ú" d="M369 1443 l0 -935 q0 -167 104.5 -271.5 q104.5 -104.5 288.5 -104.5 q184 0 288.5 104.5 q104.5 104.5 104.5 271.5 l0 935 l180 0 l0 -947 q0 -235 -154.5 -382.5 q-154.5 -147.5 -418.5 -147.5 q-264 0 -418.5 147.5 q-154.5 147.5 -154.5 382.5 l0 947 l180 0 ZM860 1575 l-204 0 l310 298 l226 0 l-332 -298 Z" /><glyph glyph-name="Ucircumflex" unicode="û" d="M369 1443 l0 -935 q0 -167 104.5 -271.5 q104.5 -104.5 288.5 -104.5 q184 0 288.5 104.5 q104.5 104.5 104.5 271.5 l0 935 l180 0 l0 -947 q0 -235 -154.5 -382.5 q-154.5 -147.5 -418.5 -147.5 q-264 0 -418.5 147.5 q-154.5 147.5 -154.5 382.5 l0 947 l180 0 ZM680 1873 l164 0 l300 -298 l-202 0 l-172 177 l-16 0 l-172 -177 l-202 0 l300 298 Z" /><glyph glyph-name="Udieresis" unicode="ü" d="M369 1443 l0 -935 q0 -167 104.5 -271.5 q104.5 -104.5 288.5 -104.5 q184 0 288.5 104.5 q104.5 104.5 104.5 271.5 l0 935 l180 0 l0 -947 q0 -235 -154.5 -382.5 q-154.5 -147.5 -418.5 -147.5 q-264 0 -418.5 147.5 q-154.5 147.5 -154.5 382.5 l0 947 l180 0 ZM645.5 1610.5 q-35.5 -35.5 -85.5 -35.5 q-50 0 -85.5 35.5 q-35.5 35.5 -35.5 85.5 q0 50 35.5 85.5 q35.5 35.5 85.5 35.5 q50 0 85.5 -35.5 q35.5 -35.5 35.5 -85.5 q0 -50 -35.5 -85.5 ZM1049.5 1610.5 q-35.5 -35.5 -85.5 -35.5 q-50 0 -85.5 35.5 q-35.5 35.5 -35.5 85.5 q0 50 35.5 85.5 q35.5 35.5 85.5 35.5 q50 0 85.5 -35.5 q35.5 -35.5 35.5 -85.5 q0 -50 -35.5 -85.5 Z" /><glyph glyph-name="Yacute" unicode="ý" d="M762 0 l-180 0 l0 621 l-512 822 l205 0 l389 -641 l16 0 l389 641 l205 0 l-512 -822 l0 -621 ZM770 1575 l-204 0 l310 298 l226 0 l-332 -298 Z" /><glyph glyph-name="Thorn" unicode="þ" d="M184 1443 l180 0 l0 -266 l373 0 q83 0 159 -28 q76 -28 134.5 -80 q58.5 -52 93.5 -131.5 q35 -79.5 35 -175.5 q0 -96 -35 -176 q-35 -80 -94.5 -132 q-59.5 -52 -135.5 -80.5 q-76 -28.5 -159 -28.5 l-371 0 l0 -345 l-180 0 l0 1443 ZM364 1017 l0 -512 l322 0 q130 0 209 66 q79 66 79 191 q0 125 -79 190 q-79 65 -209 65 l-322 0 Z" /><glyph glyph-name="germandbls" unicode="ß" d="M396 0 l-171 0 l0 1101 q0 182 115.5 288.5 q115.5 106.5 303.5 106.5 q183 0 299 -105 q116 -105 116 -270 q0 -121 -65 -212 q-65 -91 -164 -122 l0 -18 q156 -15 246 -108.5 q90 -93.5 90 -253.5 q0 -181 -126 -301 q-126 -120 -329 -120 q-83 0 -144 13 l0 153 q61 -14 132 -14 q139 0 217.5 75 q78.5 75 78.5 196 q0 125 -89.5 197 q-89.5 72 -250.5 72 l-61 0 l0 170 l51 0 q113 0 179 68.5 q66 68.5 66 195.5 q0 100 -66 166 q-66 66 -177 66 q-117 0 -184 -68.5 q-67 -68.5 -67 -191.5 l0 -1084 Z" /><glyph glyph-name="agrave" unicode="à" d="M494 132 q133 0 220.5 77 q87.5 77 87.5 193 l0 99 l-290 -19 q-122 -8 -179 -51 q-57 -43 -57 -125 q0 -81 61 -127.5 q61 -46.5 157 -46.5 ZM462 -19 q-159 0 -261.5 87.5 q-102.5 87.5 -102.5 233.5 q0 144 102 226 q102 82 291 93 l311 19 l0 98 q0 100 -62 153 q-62 53 -182 53 q-97 0 -161 -35 q-64 -35 -82 -99 l-174 0 q17 129 133.5 208 q116.5 79 289.5 79 q196 0 303 -95 q107 -95 107 -264 l0 -738 l-164 0 l0 159 l-16 0 q-52 -86 -138 -132 q-86 -46 -194 -46 ZM686 1263 l-194 0 l-278 338 l220 0 l252 -338 Z" /><glyph glyph-name="aacute" unicode="á" d="M494 132 q133 0 220.5 77 q87.5 77 87.5 193 l0 99 l-290 -19 q-122 -8 -179 -51 q-57 -43 -57 -125 q0 -81 61 -127.5 q61 -46.5 157 -46.5 ZM462 -19 q-159 0 -261.5 87.5 q-102.5 87.5 -102.5 233.5 q0 144 102 226 q102 82 291 93 l311 19 l0 98 q0 100 -62 153 q-62 53 -182 53 q-97 0 -161 -35 q-64 -35 -82 -99 l-174 0 q17 129 133.5 208 q116.5 79 289.5 79 q196 0 303 -95 q107 -95 107 -264 l0 -738 l-164 0 l0 159 l-16 0 q-52 -86 -138 -132 q-86 -46 -194 -46 ZM644 1263 l-194 0 l252 338 l220 0 l-278 -338 Z" /><glyph glyph-name="acircumflex" unicode="â" d="M494 132 q133 0 220.5 77 q87.5 77 87.5 193 l0 99 l-290 -19 q-122 -8 -179 -51 q-57 -43 -57 -125 q0 -81 61 -127.5 q61 -46.5 157 -46.5 ZM462 -19 q-159 0 -261.5 87.5 q-102.5 87.5 -102.5 233.5 q0 144 102 226 q102 82 291 93 l311 19 l0 98 q0 100 -62 153 q-62 53 -182 53 q-97 0 -161 -35 q-64 -35 -82 -99 l-174 0 q17 129 133.5 208 q116.5 79 289.5 79 q196 0 303 -95 q107 -95 107 -264 l0 -738 l-164 0 l0 159 l-16 0 q-52 -86 -138 -132 q-86 -46 -194 -46 ZM665 1568 l282 -340 l-198 0 l-177 227 l-16 0 l-177 -227 l-198 0 l282 340 l202 0 Z" /><glyph glyph-name="atilde" unicode="ã" d="M494 132 q133 0 220.5 77 q87.5 77 87.5 193 l0 99 l-290 -19 q-122 -8 -179 -51 q-57 -43 -57 -125 q0 -81 61 -127.5 q61 -46.5 157 -46.5 ZM462 -19 q-159 0 -261.5 87.5 q-102.5 87.5 -102.5 233.5 q0 144 102 226 q102 82 291 93 l311 19 l0 98 q0 100 -62 153 q-62 53 -182 53 q-97 0 -161 -35 q-64 -35 -82 -99 l-174 0 q17 129 133.5 208 q116.5 79 289.5 79 q196 0 303 -95 q107 -95 107 -264 l0 -738 l-164 0 l0 159 l-16 0 q-52 -86 -138 -132 q-86 -46 -194 -46 ZM710 1231 q-44 0 -82.5 16 q-38.5 16 -64.5 39.5 q-26 23.5 -48 46.5 q-22 23 -44.5 39 q-22.5 16 -44.5 16 q-53 0 -75.5 -36 q-22.5 -36 -22.5 -121 l-142 0 q0 136 61.5 213.5 q61.5 77.5 170.5 77.5 q44 0 82.5 -16 q38.5 -16 64.5 -39 q26 -23 48 -46.5 q22 -23.5 44.5 -39.5 q22.5 -16 44.5 -16 q53 0 75.5 36 q22.5 36 22.5 121 l142 0 q0 -136 -61.5 -213.5 q-61.5 -77.5 -170.5 -77.5 Z" /><glyph glyph-name="adieresis" unicode="ä" d="M494 132 q133 0 220.5 77 q87.5 77 87.5 193 l0 99 l-290 -19 q-122 -8 -179 -51 q-57 -43 -57 -125 q0 -81 61 -127.5 q61 -46.5 157 -46.5 ZM462 -19 q-159 0 -261.5 87.5 q-102.5 87.5 -102.5 233.5 q0 144 102 226 q102 82 291 93 l311 19 l0 98 q0 100 -62 153 q-62 53 -182 53 q-97 0 -161 -35 q-64 -35 -82 -99 l-174 0 q17 129 133.5 208 q116.5 79 289.5 79 q196 0 303 -95 q107 -95 107 -264 l0 -738 l-164 0 l0 159 l-16 0 q-52 -86 -138 -132 q-86 -46 -194 -46 ZM447.5 1263.5 q-35.5 -35.5 -85.5 -35.5 q-50 0 -85.5 35.5 q-35.5 35.5 -35.5 85.5 q0 50 35.5 85.5 q35.5 35.5 85.5 35.5 q50 0 85.5 -35.5 q35.5 -35.5 35.5 -85.5 q0 -50 -35.5 -85.5 ZM851.5 1263.5 q-35.5 -35.5 -85.5 -35.5 q-50 0 -85.5 35.5 q-35.5 35.5 -35.5 85.5 q0 50 35.5 85.5 q35.5 35.5 85.5 35.5 q50 0 85.5 -35.5 q35.5 -35.5 35.5 -85.5 q0 -50 -35.5 -85.5 Z" /><glyph glyph-name="aring" unicode="å" d="M494 132 q133 0 220.5 77 q87.5 77 87.5 193 l0 99 l-290 -19 q-122 -8 -179 -51 q-57 -43 -57 -125 q0 -81 61 -127.5 q61 -46.5 157 -46.5 ZM462 -19 q-159 0 -261.5 87.5 q-102.5 87.5 -102.5 233.5 q0 144 102 226 q102 82 291 93 l311 19 l0 98 q0 100 -62 153 q-62 53 -182 53 q-97 0 -161 -35 q-64 -35 -82 -99 l-174 0 q17 129 133.5 208 q116.5 79 289.5 79 q196 0 303 -95 q107 -95 107 -264 l0 -738 l-164 0 l0 159 l-16 0 q-52 -86 -138 -132 q-86 -46 -194 -46 ZM728 1294.5 q-68 -66.5 -164 -66.5 q-96 0 -164 66.5 q-68 66.5 -68 162.5 q0 96 68 162.5 q68 66.5 164 66.5 q96 0 164 -66.5 q68 -66.5 68 -162.5 q0 -96 -68 -162.5 ZM477 1369 q35 -35 87 -35 q52 0 87 35 q35 35 35 88 q0 53 -35 88 q-35 35 -87 35 q-52 0 -87 -35 q-35 -35 -35 -88 q0 -53 35 -88 Z" /><glyph glyph-name="ae" unicode="æ" d="M1287 -19 q-129 0 -236 65 q-107 65 -150 166 l-16 0 q-53 -109 -158.5 -170 q-105.5 -61 -247.5 -61 q-171 0 -276 87 q-105 87 -105 234 q0 144 102 226 q102 82 291 93 l311 19 l0 98 q0 100 -62 153 q-62 53 -182 53 q-97 0 -161 -35 q-64 -35 -82 -99 l-174 0 q17 130 133.5 208.5 q116.5 78.5 289.5 78.5 q124 0 214.5 -50.5 q90.5 -50.5 133.5 -134.5 l16 0 q48 81 145.5 133 q97.5 52 211.5 52 q214 0 335 -140.5 q121 -140.5 121 -388.5 l0 -68 l-768 0 l0 -18 q7 -159 93 -253.5 q86 -94.5 225 -94.5 q100 0 164.5 35.5 q64.5 35.5 99.5 109.5 l172 0 q-41 -143 -155.5 -220.5 q-114.5 -77.5 -284.5 -77.5 ZM1276 946 q-130 0 -211.5 -82.5 q-81.5 -82.5 -91.5 -224.5 l587 0 q-3 135 -82.5 221 q-79.5 86 -201.5 86 ZM504 132 q128 0 213 80.5 q85 80.5 85 197.5 l0 91 l-290 -19 q-122 -8 -179 -51 q-57 -43 -57 -125 q0 -81 62.5 -127.5 q62.5 -46.5 165.5 -46.5 Z" /><glyph glyph-name="ccedilla" unicode="ç" d="M1054 748 l-174 0 q-22 85 -94.5 139.5 q-72.5 54.5 -183.5 54.5 q-145 0 -230.5 -108 q-85.5 -108 -85.5 -291 q0 -186 86 -296.5 q86 -110.5 230 -110.5 q109 0 181.5 49 q72.5 49 96.5 140 l174 0 q-22 -139 -122 -231 q-100 -92 -260 -109 l-45 -117 q102 0 158.5 -43 q56.5 -43 56.5 -120 q0 -85 -65.5 -137 q-65.5 -52 -178.5 -52 q-84 0 -146 18 l0 108 q48 -14 122 -14 q119 0 119 73 q0 35 -35 50 q-35 15 -114 15 l-59 0 l0 84 l55 134 q-200 22 -316 171.5 q-116 149.5 -116 387.5 q0 252 134 403 q134 151 360 151 q189 0 308.5 -99 q119.5 -99 143.5 -250 Z" /><glyph glyph-name="egrave" unicode="è" d="M592 945 q-129 0 -212 -87 q-83 -87 -93 -230 l594 0 q-3 143 -82 230 q-79 87 -207 87 ZM876 279 l172 0 q-39 -140 -158.5 -219 q-119.5 -79 -295.5 -79 q-224 0 -355 150.5 q-131 150.5 -131 406.5 q0 255 132 407 q132 152 354 152 q218 0 343 -145 q125 -145 125 -397 l0 -66 l-775 0 l0 -8 q7 -160 90.5 -254 q83.5 -94 220.5 -94 q209 0 278 146 ZM716 1263 l-194 0 l-278 338 l220 0 l252 -338 Z" /><glyph glyph-name="eacute" unicode="é" d="M592 945 q-129 0 -212 -87 q-83 -87 -93 -230 l594 0 q-3 143 -82 230 q-79 87 -207 87 ZM876 279 l172 0 q-39 -140 -158.5 -219 q-119.5 -79 -295.5 -79 q-224 0 -355 150.5 q-131 150.5 -131 406.5 q0 255 132 407 q132 152 354 152 q218 0 343 -145 q125 -145 125 -397 l0 -66 l-775 0 l0 -8 q7 -160 90.5 -254 q83.5 -94 220.5 -94 q209 0 278 146 ZM674 1263 l-194 0 l252 338 l220 0 l-278 -338 Z" /><glyph glyph-name="ecircumflex" unicode="ê" d="M592 945 q-129 0 -212 -87 q-83 -87 -93 -230 l594 0 q-3 143 -82 230 q-79 87 -207 87 ZM876 279 l172 0 q-39 -140 -158.5 -219 q-119.5 -79 -295.5 -79 q-224 0 -355 150.5 q-131 150.5 -131 406.5 q0 255 132 407 q132 152 354 152 q218 0 343 -145 q125 -145 125 -397 l0 -66 l-775 0 l0 -8 q7 -160 90.5 -254 q83.5 -94 220.5 -94 q209 0 278 146 ZM695 1568 l282 -340 l-198 0 l-177 227 l-16 0 l-177 -227 l-198 0 l282 340 l202 0 Z" /><glyph glyph-name="edieresis" unicode="ë" d="M592 945 q-129 0 -212 -87 q-83 -87 -93 -230 l594 0 q-3 143 -82 230 q-79 87 -207 87 ZM876 279 l172 0 q-39 -140 -158.5 -219 q-119.5 -79 -295.5 -79 q-224 0 -355 150.5 q-131 150.5 -131 406.5 q0 255 132 407 q132 152 354 152 q218 0 343 -145 q125 -145 125 -397 l0 -66 l-775 0 l0 -8 q7 -160 90.5 -254 q83.5 -94 220.5 -94 q209 0 278 146 ZM477.5 1263.5 q-35.5 -35.5 -85.5 -35.5 q-50 0 -85.5 35.5 q-35.5 35.5 -35.5 85.5 q0 50 35.5 85.5 q35.5 35.5 85.5 35.5 q50 0 85.5 -35.5 q35.5 -35.5 35.5 -85.5 q0 -50 -35.5 -85.5 ZM881.5 1263.5 q-35.5 -35.5 -85.5 -35.5 q-50 0 -85.5 35.5 q-35.5 35.5 -35.5 85.5 q0 50 35.5 85.5 q35.5 35.5 85.5 35.5 q50 0 85.5 -35.5 q35.5 -35.5 35.5 -85.5 q0 -50 -35.5 -85.5 Z" /><glyph glyph-name="igrave" unicode="ì" d="M166 0 l0 1078 l172 0 l0 -1078 l-172 0 ZM374 1263 l-194 0 l-278 338 l220 0 l252 -338 Z" /><glyph glyph-name="iacute" unicode="í" d="M166 0 l0 1078 l172 0 l0 -1078 l-172 0 ZM332 1263 l-194 0 l252 338 l220 0 l-278 -338 Z" /><glyph glyph-name="icircumflex" unicode="î" d="M166 0 l0 1078 l172 0 l0 -1078 l-172 0 ZM353 1568 l282 -340 l-198 0 l-177 227 l-16 0 l-177 -227 l-198 0 l282 340 l202 0 Z" /><glyph glyph-name="idieresis" unicode="ï" d="M166 0 l0 1078 l172 0 l0 -1078 l-172 0 ZM135.5 1263.5 q-35.5 -35.5 -85.5 -35.5 q-50 0 -85.5 35.5 q-35.5 35.5 -35.5 85.5 q0 50 35.5 85.5 q35.5 35.5 85.5 35.5 q50 0 85.5 -35.5 q35.5 -35.5 35.5 -85.5 q0 -50 -35.5 -85.5 ZM539.5 1263.5 q-35.5 -35.5 -85.5 -35.5 q-50 0 -85.5 35.5 q-35.5 35.5 -35.5 85.5 q0 50 35.5 85.5 q35.5 35.5 85.5 35.5 q50 0 85.5 -35.5 q35.5 -35.5 35.5 -85.5 q0 -50 -35.5 -85.5 Z" /><glyph glyph-name="eth" unicode="ð" d="M601 -19 q-229 0 -361 144 q-132 144 -132 394 q0 241 125 389.5 q125 148.5 328 148.5 q101 0 192 -48 q91 -48 126 -121 l15 0 q-45 183 -182 351 l-278 -90 l-35 112 l231 75 q-62 73 -200 190 l206 0 q77 -65 145 -141 l250 81 l35 -112 l-209 -68 q110 -149 168.5 -333 q58.5 -184 58.5 -382 q0 -273 -130 -431.5 q-130 -158.5 -353 -158.5 ZM601 902 q-144 0 -229.5 -104 q-85.5 -104 -85.5 -279 q0 -175 85.5 -279 q85.5 -104 229.5 -104 q145 0 231 104 q86 104 86 279 q0 173 -87 278 q-87 105 -230 105 Z" /><glyph glyph-name="ntilde" unicode="ñ" d="M162 0 l0 1078 l164 0 l0 -170 l16 0 q86 189 324 189 q181 0 279 -103.5 q98 -103.5 98 -295.5 l0 -698 l-172 0 l0 656 q0 145 -62.5 215.5 q-62.5 70.5 -191.5 70.5 q-130 0 -206.5 -81.5 q-76.5 -81.5 -76.5 -222.5 l0 -638 l-172 0 ZM749 1231 q-44 0 -82.5 16 q-38.5 16 -64.5 39.5 q-26 23.5 -48 46.5 q-22 23 -44.5 39 q-22.5 16 -44.5 16 q-53 0 -75.5 -36 q-22.5 -36 -22.5 -121 l-142 0 q0 136 61.5 213.5 q61.5 77.5 170.5 77.5 q44 0 82.5 -16 q38.5 -16 64.5 -39 q26 -23 48 -46.5 q22 -23.5 44.5 -39.5 q22.5 -16 44.5 -16 q53 0 75.5 36 q22.5 36 22.5 121 l142 0 q0 -136 -61.5 -213.5 q-61.5 -77.5 -170.5 -77.5 Z" /><glyph glyph-name="ograve" unicode="ò" d="M968.5 130.5 q-133.5 -149.5 -363.5 -149.5 q-230 0 -363.5 149.5 q-133.5 149.5 -133.5 408.5 q0 260 133 409 q133 149 364 149 q231 0 364 -149 q133 -149 133 -409 q0 -259 -133.5 -408.5 ZM369 241.5 q83 -105.5 236 -105.5 q153 0 236 105.5 q83 105.5 83 297.5 q0 192 -83 297.5 q-83 105.5 -236 105.5 q-153 0 -236 -105.5 q-83 -105.5 -83 -297.5 q0 -192 83 -297.5 ZM727 1263 l-194 0 l-278 338 l220 0 l252 -338 Z" /><glyph glyph-name="oacute" unicode="ó" d="M968.5 130.5 q-133.5 -149.5 -363.5 -149.5 q-230 0 -363.5 149.5 q-133.5 149.5 -133.5 408.5 q0 260 133 409 q133 149 364 149 q231 0 364 -149 q133 -149 133 -409 q0 -259 -133.5 -408.5 ZM369 241.5 q83 -105.5 236 -105.5 q153 0 236 105.5 q83 105.5 83 297.5 q0 192 -83 297.5 q-83 105.5 -236 105.5 q-153 0 -236 -105.5 q-83 -105.5 -83 -297.5 q0 -192 83 -297.5 ZM685 1263 l-194 0 l252 338 l220 0 l-278 -338 Z" /><glyph glyph-name="ocircumflex" unicode="ô" d="M968.5 130.5 q-133.5 -149.5 -363.5 -149.5 q-230 0 -363.5 149.5 q-133.5 149.5 -133.5 408.5 q0 260 133 409 q133 149 364 149 q231 0 364 -149 q133 -149 133 -409 q0 -259 -133.5 -408.5 ZM369 241.5 q83 -105.5 236 -105.5 q153 0 236 105.5 q83 105.5 83 297.5 q0 192 -83 297.5 q-83 105.5 -236 105.5 q-153 0 -236 -105.5 q-83 -105.5 -83 -297.5 q0 -192 83 -297.5 ZM706 1568 l282 -340 l-198 0 l-177 227 l-16 0 l-177 -227 l-198 0 l282 340 l202 0 Z" /><glyph glyph-name="otilde" unicode="õ" d="M968.5 130.5 q-133.5 -149.5 -363.5 -149.5 q-230 0 -363.5 149.5 q-133.5 149.5 -133.5 408.5 q0 260 133 409 q133 149 364 149 q231 0 364 -149 q133 -149 133 -409 q0 -259 -133.5 -408.5 ZM369 241.5 q83 -105.5 236 -105.5 q153 0 236 105.5 q83 105.5 83 297.5 q0 192 -83 297.5 q-83 105.5 -236 105.5 q-153 0 -236 -105.5 q-83 -105.5 -83 -297.5 q0 -192 83 -297.5 ZM751 1231 q-44 0 -82.5 16 q-38.5 16 -64.5 39.5 q-26 23.5 -48 46.5 q-22 23 -44.5 39 q-22.5 16 -44.5 16 q-53 0 -75.5 -36 q-22.5 -36 -22.5 -121 l-142 0 q0 136 61.5 213.5 q61.5 77.5 170.5 77.5 q44 0 82.5 -16 q38.5 -16 64.5 -39 q26 -23 48 -46.5 q22 -23.5 44.5 -39.5 q22.5 -16 44.5 -16 q53 0 75.5 36 q22.5 36 22.5 121 l142 0 q0 -136 -61.5 -213.5 q-61.5 -77.5 -170.5 -77.5 Z" /><glyph glyph-name="odieresis" unicode="ö" d="M968.5 130.5 q-133.5 -149.5 -363.5 -149.5 q-230 0 -363.5 149.5 q-133.5 149.5 -133.5 408.5 q0 260 133 409 q133 149 364 149 q231 0 364 -149 q133 -149 133 -409 q0 -259 -133.5 -408.5 ZM369 241.5 q83 -105.5 236 -105.5 q153 0 236 105.5 q83 105.5 83 297.5 q0 192 -83 297.5 q-83 105.5 -236 105.5 q-153 0 -236 -105.5 q-83 -105.5 -83 -297.5 q0 -192 83 -297.5 ZM488.5 1263.5 q-35.5 -35.5 -85.5 -35.5 q-50 0 -85.5 35.5 q-35.5 35.5 -35.5 85.5 q0 50 35.5 85.5 q35.5 35.5 85.5 35.5 q50 0 85.5 -35.5 q35.5 -35.5 35.5 -85.5 q0 -50 -35.5 -85.5 ZM892.5 1263.5 q-35.5 -35.5 -85.5 -35.5 q-50 0 -85.5 35.5 q-35.5 35.5 -35.5 85.5 q0 50 35.5 85.5 q35.5 35.5 85.5 35.5 q50 0 85.5 -35.5 q35.5 -35.5 35.5 -85.5 q0 -50 -35.5 -85.5 Z" /><glyph glyph-name="divide" unicode="÷" d="M665 812 q-54 0 -90 35.5 q-36 35.5 -36 89.5 q0 54 36 89.5 q36 35.5 90 35.5 q53 0 88.5 -35.5 q35.5 -35.5 35.5 -89.5 q0 -55 -35.5 -90 q-35.5 -35 -88.5 -35 ZM665 98 q-54 0 -90 35.5 q-36 35.5 -36 89.5 q0 54 36 89.5 q36 35.5 90 35.5 q53 0 88.5 -35.5 q35.5 -35.5 35.5 -89.5 q0 -55 -35.5 -90 q-35.5 -35 -88.5 -35 ZM1173 506 l-1018 0 l0 148 l1018 0 l0 -148 Z" /><glyph glyph-name="oslash" unicode="ø" d="M856 815 l-427 -629 q73 -50 176 -50 q153 0 236 105.5 q83 105.5 83 297.5 q0 175 -68 276 ZM344 280 l425 620 q-69 42 -164 42 q-153 0 -236 -105.5 q-83 -105.5 -83 -297.5 q0 -158 58 -259 ZM1018 1054 l-62 -92 q146 -149 146 -423 q0 -259 -133.5 -408.5 q-133.5 -149.5 -363.5 -149.5 q-155 0 -268 69 l-59 -87 l-104 69 l67 98 q-133 150 -133 409 q0 260 133 409 q133 149 364 149 q144 0 256 -62 l57 83 l100 -64 Z" /><glyph glyph-name="ugrave" unicode="ù" d="M1034 1078 l0 -1078 l-164 0 l0 169 l-16 0 q-41 -91 -126 -139.5 q-85 -48.5 -208 -48.5 q-180 0 -274 103 q-94 103 -94 296 l0 698 l172 0 l0 -656 q0 -147 58 -215.5 q58 -68.5 186 -68.5 q141 0 217.5 79.5 q76.5 79.5 76.5 222.5 l0 638 l172 0 ZM715 1263 l-194 0 l-278 338 l220 0 l252 -338 Z" /><glyph glyph-name="uacute" unicode="ú" d="M1034 1078 l0 -1078 l-164 0 l0 169 l-16 0 q-41 -91 -126 -139.5 q-85 -48.5 -208 -48.5 q-180 0 -274 103 q-94 103 -94 296 l0 698 l172 0 l0 -656 q0 -147 58 -215.5 q58 -68.5 186 -68.5 q141 0 217.5 79.5 q76.5 79.5 76.5 222.5 l0 638 l172 0 ZM673 1263 l-194 0 l252 338 l220 0 l-278 -338 Z" /><glyph glyph-name="ucircumflex" unicode="û" d="M1034 1078 l0 -1078 l-164 0 l0 169 l-16 0 q-41 -91 -126 -139.5 q-85 -48.5 -208 -48.5 q-180 0 -274 103 q-94 103 -94 296 l0 698 l172 0 l0 -656 q0 -147 58 -215.5 q58 -68.5 186 -68.5 q141 0 217.5 79.5 q76.5 79.5 76.5 222.5 l0 638 l172 0 ZM694 1568 l282 -340 l-198 0 l-177 227 l-16 0 l-177 -227 l-198 0 l282 340 l202 0 Z" /><glyph glyph-name="udieresis" unicode="ü" d="M1034 1078 l0 -1078 l-164 0 l0 169 l-16 0 q-41 -91 -126 -139.5 q-85 -48.5 -208 -48.5 q-180 0 -274 103 q-94 103 -94 296 l0 698 l172 0 l0 -656 q0 -147 58 -215.5 q58 -68.5 186 -68.5 q141 0 217.5 79.5 q76.5 79.5 76.5 222.5 l0 638 l172 0 ZM476.5 1263.5 q-35.5 -35.5 -85.5 -35.5 q-50 0 -85.5 35.5 q-35.5 35.5 -35.5 85.5 q0 50 35.5 85.5 q35.5 35.5 85.5 35.5 q50 0 85.5 -35.5 q35.5 -35.5 35.5 -85.5 q0 -50 -35.5 -85.5 ZM880.5 1263.5 q-35.5 -35.5 -85.5 -35.5 q-50 0 -85.5 35.5 q-35.5 35.5 -35.5 85.5 q0 50 35.5 85.5 q35.5 35.5 85.5 35.5 q50 0 85.5 -35.5 q35.5 -35.5 35.5 -85.5 q0 -50 -35.5 -85.5 Z" /><glyph glyph-name="yacute" unicode="ý" d="M254 -390 q-41 0 -77 6 l0 147 q26 -5 72 -5 q75 0 119.5 40 q44.5 40 78.5 137 l20 64 l-399 1079 l186 0 l296 -887 l16 0 l295 887 l183 0 l-421 -1144 q-69 -187 -147 -255.5 q-78 -68.5 -222 -68.5 ZM631 1263 l-194 0 l252 338 l220 0 l-278 -338 Z" /><glyph glyph-name="thorn" unicode="þ" d="M697 1097 q206 0 329.5 -152 q123.5 -152 123.5 -406 q0 -253 -124 -405.5 q-124 -152.5 -329 -152.5 q-115 0 -204 47.5 q-89 47.5 -133 133.5 l-16 0 l0 -522 l-172 0 l0 1866 l164 0 l0 -608 l16 0 q52 93 143.5 146 q91.5 53 201.5 53 ZM656 136 q148 0 232 107 q84 107 84 296 q0 189 -83.5 296 q-83.5 107 -231.5 107 q-146 0 -232 -108.5 q-86 -108.5 -86 -294.5 q0 -185 85.5 -294 q85.5 -109 231.5 -109 Z" /><glyph glyph-name="ydieresis" unicode="ÿ" d="M254 -390 q-41 0 -77 6 l0 147 q26 -5 72 -5 q75 0 119.5 40 q44.5 40 78.5 137 l20 64 l-399 1079 l186 0 l296 -887 l16 0 l295 887 l183 0 l-421 -1144 q-69 -187 -147 -255.5 q-78 -68.5 -222 -68.5 ZM434.5 1263.5 q-35.5 -35.5 -85.5 -35.5 q-50 0 -85.5 35.5 q-35.5 35.5 -35.5 85.5 q0 50 35.5 85.5 q35.5 35.5 85.5 35.5 q50 0 85.5 -35.5 q35.5 -35.5 35.5 -85.5 q0 -50 -35.5 -85.5 ZM838.5 1263.5 q-35.5 -35.5 -85.5 -35.5 q-50 0 -85.5 35.5 q-35.5 35.5 -35.5 85.5 q0 50 35.5 85.5 q35.5 35.5 85.5 35.5 q50 0 85.5 -35.5 q35.5 -35.5 35.5 -85.5 q0 -50 -35.5 -85.5 Z" /><glyph glyph-name="Amacron" unicode="&#x100;" d="M1122 0 l-145 413 l-574 0 l-145 -413 l-189 0 l532 1443 l178 0 l532 -1443 l-189 0 ZM682 1210 l-226 -644 l468 0 l-226 644 l-16 0 ZM1027 1756 l0 -136 l-674 0 l0 136 l674 0 Z" /><glyph glyph-name="amacron" unicode="&#x101;" d="M494 132 q133 0 220.5 77 q87.5 77 87.5 193 l0 99 l-290 -19 q-122 -8 -179 -51 q-57 -43 -57 -125 q0 -81 61 -127.5 q61 -46.5 157 -46.5 ZM462 -19 q-159 0 -261.5 87.5 q-102.5 87.5 -102.5 233.5 q0 144 102 226 q102 82 291 93 l311 19 l0 98 q0 100 -62 153 q-62 53 -182 53 q-97 0 -161 -35 q-64 -35 -82 -99 l-174 0 q17 129 133.5 208 q116.5 79 289.5 79 q196 0 303 -95 q107 -95 107 -264 l0 -738 l-164 0 l0 159 l-16 0 q-52 -86 -138 -132 q-86 -46 -194 -46 ZM901 1422 l0 -136 l-674 0 l0 136 l674 0 Z" /><glyph glyph-name="Abreve" unicode="&#x102;" d="M1122 0 l-145 413 l-574 0 l-145 -413 l-189 0 l532 1443 l178 0 l532 -1443 l-189 0 ZM682 1210 l-226 -644 l468 0 l-226 644 l-16 0 ZM326 1873 l154 0 q0 -79 56.5 -126 q56.5 -47 153.5 -47 q97 0 153.5 47 q56.5 47 56.5 126 l154 0 q0 -135 -98 -216.5 q-98 -81.5 -266 -81.5 q-168 0 -266 81.5 q-98 81.5 -98 216.5 Z" /><glyph glyph-name="abreve" unicode="&#x103;" d="M494 132 q133 0 220.5 77 q87.5 77 87.5 193 l0 99 l-290 -19 q-122 -8 -179 -51 q-57 -43 -57 -125 q0 -81 61 -127.5 q61 -46.5 157 -46.5 ZM462 -19 q-159 0 -261.5 87.5 q-102.5 87.5 -102.5 233.5 q0 144 102 226 q102 82 291 93 l311 19 l0 98 q0 100 -62 153 q-62 53 -182 53 q-97 0 -161 -35 q-64 -35 -82 -99 l-174 0 q17 129 133.5 208 q116.5 79 289.5 79 q196 0 303 -95 q107 -95 107 -264 l0 -738 l-164 0 l0 159 l-16 0 q-52 -86 -138 -132 q-86 -46 -194 -46 ZM198 1556 l154 0 q0 -89 55.5 -144.5 q55.5 -55.5 154.5 -55.5 q99 0 154.5 55.5 q55.5 55.5 55.5 144.5 l154 0 q0 -145 -98 -236.5 q-98 -91.5 -266 -91.5 q-168 0 -266 91.5 q-98 91.5 -98 236.5 Z" /><glyph glyph-name="Aogonek" unicode="&#x104;" d="M682 1210 l-226 -644 l468 0 l-226 644 l-16 0 ZM1294 -416 q-46 -16 -104 -16 q-109 0 -176 58.5 q-67 58.5 -67 145.5 q0 70 48 133 q48 63 125 103 l-143 405 l-574 0 l-145 -413 l-189 0 l532 1443 l178 0 l532 -1443 l-11 -5 q-84 -38 -134 -82 q-50 -44 -50 -103 q0 -46 33 -72 q33 -26 79 -26 q42 0 66 6 l0 -134 Z" /><glyph glyph-name="aogonek" unicode="&#x105;" d="M494 132 q132 0 220 77 q88 77 88 193 l0 99 l-290 -19 q-122 -8 -179 -51 q-57 -43 -57 -125 q0 -79 60 -126.5 q60 -47.5 158 -47.5 ZM966 -416 q-45 -16 -104 -16 q-106 0 -174.5 57.5 q-68.5 57.5 -68.5 146.5 q0 81 54 145.5 q54 64.5 137 94.5 l0 147 l-16 0 q-52 -86 -138 -132 q-86 -46 -194 -46 q-162 0 -263 89 q-101 89 -101 232 q0 143 101.5 225.5 q101.5 82.5 291.5 93.5 l311 19 l0 98 q0 101 -62.5 153.5 q-62.5 52.5 -181.5 52.5 q-98 0 -161.5 -35 q-63.5 -35 -81.5 -99 l-174 0 q17 129 133.5 208 q116.5 79 289.5 79 q194 0 302 -94.5 q108 -94.5 108 -264.5 l0 -738 l-12 -5 q-81 -33 -127.5 -82 q-46.5 -49 -46.5 -103 q0 -43 31.5 -70.5 q31.5 -27.5 80.5 -27.5 q44 0 66 6 l0 -134 Z" /><glyph glyph-name="Cacute" unicode="&#x106;" d="M765 -34 q-294 0 -465.5 203 q-171.5 203 -171.5 552 q0 349 171 552.5 q171 203.5 465 203.5 q228 0 390 -130 q162 -130 194 -339 l-183 0 q-36 140 -144 221.5 q-108 81.5 -257 81.5 q-208 0 -329.5 -159 q-121.5 -159 -121.5 -431 q0 -272 122 -430.5 q122 -158.5 330 -158.5 q151 0 258.5 72.5 q107.5 72.5 141.5 197.5 l183 0 q-36 -199 -194.5 -317.5 q-158.5 -118.5 -388.5 -118.5 ZM862 1577 l-204 0 l310 298 l226 0 l-332 -298 Z" /><glyph glyph-name="cacute" unicode="&#x107;" d="M1054 748 l-174 0 q-22 85 -94.5 139.5 q-72.5 54.5 -183.5 54.5 q-145 0 -230.5 -108 q-85.5 -108 -85.5 -291 q0 -186 86 -296.5 q86 -110.5 230 -110.5 q109 0 181.5 49 q72.5 49 96.5 140 l174 0 q-24 -153 -143 -248.5 q-119 -95.5 -308 -95.5 q-227 0 -361 152.5 q-134 152.5 -134 409.5 q0 252 134 403 q134 151 360 151 q189 0 308.5 -99 q119.5 -99 143.5 -250 ZM680 1263 l-194 0 l252 338 l220 0 l-278 -338 Z" /><glyph glyph-name="Ccircumflex" unicode="&#x108;" d="M765 -34 q-294 0 -465.5 203 q-171.5 203 -171.5 552 q0 349 171 552.5 q171 203.5 465 203.5 q228 0 390 -130 q162 -130 194 -339 l-183 0 q-36 140 -144 221.5 q-108 81.5 -257 81.5 q-208 0 -329.5 -159 q-121.5 -159 -121.5 -431 q0 -272 122 -430.5 q122 -158.5 330 -158.5 q151 0 258.5 72.5 q107.5 72.5 141.5 197.5 l183 0 q-36 -199 -194.5 -317.5 q-158.5 -118.5 -388.5 -118.5 ZM682 1875 l164 0 l300 -298 l-202 0 l-172 177 l-16 0 l-172 -177 l-202 0 l300 298 Z" /><glyph glyph-name="ccircumflex" unicode="&#x109;" d="M1054 748 l-174 0 q-22 85 -94.5 139.5 q-72.5 54.5 -183.5 54.5 q-145 0 -230.5 -108 q-85.5 -108 -85.5 -291 q0 -186 86 -296.5 q86 -110.5 230 -110.5 q109 0 181.5 49 q72.5 49 96.5 140 l174 0 q-24 -153 -143 -248.5 q-119 -95.5 -308 -95.5 q-227 0 -361 152.5 q-134 152.5 -134 409.5 q0 252 134 403 q134 151 360 151 q189 0 308.5 -99 q119.5 -99 143.5 -250 ZM701 1568 l282 -340 l-198 0 l-177 227 l-16 0 l-177 -227 l-198 0 l282 340 l202 0 Z" /><glyph glyph-name="Cdotaccent" unicode="&#x10a;" d="M765 -34 q-294 0 -465.5 203 q-171.5 203 -171.5 552 q0 349 171 552.5 q171 203.5 465 203.5 q228 0 390 -130 q162 -130 194 -339 l-183 0 q-36 140 -144 221.5 q-108 81.5 -257 81.5 q-208 0 -329.5 -159 q-121.5 -159 -121.5 -431 q0 -272 122 -430.5 q122 -158.5 330 -158.5 q151 0 258.5 72.5 q107.5 72.5 141.5 197.5 l183 0 q-36 -199 -194.5 -317.5 q-158.5 -118.5 -388.5 -118.5 ZM849.5 1612.5 q-35.5 -35.5 -85.5 -35.5 q-50 0 -85.5 35.5 q-35.5 35.5 -35.5 85.5 q0 50 35.5 85.5 q35.5 35.5 85.5 35.5 q50 0 85.5 -35.5 q35.5 -35.5 35.5 -85.5 q0 -50 -35.5 -85.5 Z" /><glyph glyph-name="cdotaccent" unicode="&#x10b;" d="M1054 748 l-174 0 q-22 85 -94.5 139.5 q-72.5 54.5 -183.5 54.5 q-145 0 -230.5 -108 q-85.5 -108 -85.5 -291 q0 -186 86 -296.5 q86 -110.5 230 -110.5 q109 0 181.5 49 q72.5 49 96.5 140 l174 0 q-24 -153 -143 -248.5 q-119 -95.5 -308 -95.5 q-227 0 -361 152.5 q-134 152.5 -134 409.5 q0 252 134 403 q134 151 360 151 q189 0 308.5 -99 q119.5 -99 143.5 -250 ZM690 1324.5 q-38 -37.5 -90 -37.5 q-52 0 -90 37.5 q-38 37.5 -38 90.5 q0 52 37.5 89.5 q37.5 37.5 90.5 37.5 q53 0 90.5 -37.5 q37.5 -37.5 37.5 -89.5 q0 -53 -38 -90.5 Z" /><glyph glyph-name="Ccaron" unicode="&#x10c;" d="M765 -34 q-294 0 -465.5 203 q-171.5 203 -171.5 552 q0 349 171 552.5 q171 203.5 465 203.5 q228 0 390 -130 q162 -130 194 -339 l-183 0 q-36 140 -144 221.5 q-108 81.5 -257 81.5 q-208 0 -329.5 -159 q-121.5 -159 -121.5 -431 q0 -272 122 -430.5 q122 -158.5 330 -158.5 q151 0 258.5 72.5 q107.5 72.5 141.5 197.5 l183 0 q-36 -199 -194.5 -317.5 q-158.5 -118.5 -388.5 -118.5 ZM682 1577 l-300 298 l202 0 l172 -177 l16 0 l172 177 l202 0 l-300 -298 l-164 0 Z" /><glyph glyph-name="ccaron" unicode="&#x10d;" d="M1054 748 l-174 0 q-22 85 -94.5 139.5 q-72.5 54.5 -183.5 54.5 q-145 0 -230.5 -108 q-85.5 -108 -85.5 -291 q0 -186 86 -296.5 q86 -110.5 230 -110.5 q109 0 181.5 49 q72.5 49 96.5 140 l174 0 q-24 -153 -143 -248.5 q-119 -95.5 -308 -95.5 q-227 0 -361 152.5 q-134 152.5 -134 409.5 q0 252 134 403 q134 151 360 151 q189 0 308.5 -99 q119.5 -99 143.5 -250 ZM701 1228 l-202 0 l-282 340 l198 0 l177 -227 l16 0 l177 227 l198 0 l-282 -340 Z" /><glyph glyph-name="Dcaron" unicode="&#x10e;" d="M184 1443 l495 0 q321 0 501 -190.5 q180 -190.5 180 -530.5 q0 -341 -179.5 -531.5 q-179.5 -190.5 -501.5 -190.5 l-495 0 l0 1443 ZM364 1281 l0 -1119 l303 0 q241 0 375 147 q134 147 134 411 q0 265 -134.5 413 q-134.5 148 -374.5 148 l-303 0 ZM512 1575 l-300 298 l202 0 l172 -177 l16 0 l172 177 l202 0 l-300 -298 l-164 0 Z" /><glyph glyph-name="dcaron" unicode="&#x10f;" d="M1237 1506 l170 0 l-50 -488 l-120 0 l0 488 ZM561 -19 q-207 0 -330 152 q-123 152 -123 406 q0 253 123.5 405.5 q123.5 152.5 329.5 152.5 q113 0 202.5 -50.5 q89.5 -50.5 135.5 -138.5 l15 0 l0 598 l172 0 l0 -1506 l-164 0 l0 172 l-16 0 q-51 -90 -142 -140.5 q-91 -50.5 -203 -50.5 ZM601 942 q-147 0 -231 -107.5 q-84 -107.5 -84 -295.5 q0 -189 83.5 -296 q83.5 -107 231.5 -107 q147 0 232 108 q85 108 85 295 q0 185 -85.5 294 q-85.5 109 -231.5 109 Z" /><glyph glyph-name="Dcroat" unicode="&#x110;" d="M369 162 l303 0 q241 0 375 147 q134 147 134 411 q0 265 -134.5 413 q-134.5 148 -374.5 148 l-303 0 l0 -455 l243 0 l0 -163 l-243 0 l0 -501 ZM189 1443 l495 0 q321 0 501 -190.5 q180 -190.5 180 -530.5 q0 -341 -179.5 -531.5 q-179.5 -190.5 -501.5 -190.5 l-495 0 l0 663 l-163 0 l0 163 l163 0 l0 617 Z" /><glyph glyph-name="dcroat" unicode="&#x111;" d="M601 136 q147 0 232 108 q85 108 85 295 q0 185 -85.5 294 q-85.5 109 -231.5 109 q-147 0 -231 -107.5 q-84 -107.5 -84 -295.5 q0 -189 83.5 -296 q83.5 -107 231.5 -107 ZM1230 1401 l0 -124 l-144 0 l0 -1277 l-164 0 l0 172 l-16 0 q-51 -90 -142 -140.5 q-91 -50.5 -203 -50.5 q-207 0 -330 152 q-123 152 -123 406 q0 253 123.5 405.5 q123.5 152.5 329.5 152.5 q113 0 202.5 -50.5 q89.5 -50.5 135.5 -138.5 l15 0 l0 369 l-260 0 l0 124 l260 0 l0 105 l172 0 l0 -105 l144 0 Z" /><glyph glyph-name="Emacron" unicode="&#x112;" d="M1078 162 l0 -162 l-894 0 l0 1443 l894 0 l0 -162 l-714 0 l0 -463 l677 0 l0 -160 l-677 0 l0 -496 l714 0 ZM968 1756 l0 -136 l-674 0 l0 136 l674 0 Z" /><glyph glyph-name="emacron" unicode="&#x113;" d="M592 945 q-129 0 -212 -87 q-83 -87 -93 -230 l594 0 q-3 143 -82 230 q-79 87 -207 87 ZM876 279 l172 0 q-39 -140 -158.5 -219 q-119.5 -79 -295.5 -79 q-224 0 -355 150.5 q-131 150.5 -131 406.5 q0 255 132 407 q132 152 354 152 q218 0 343 -145 q125 -145 125 -397 l0 -66 l-775 0 l0 -8 q7 -160 90.5 -254 q83.5 -94 220.5 -94 q209 0 278 146 ZM931 1422 l0 -136 l-674 0 l0 136 l674 0 Z" /><glyph glyph-name="Ebreve" unicode="&#x114;" d="M1078 162 l0 -162 l-894 0 l0 1443 l894 0 l0 -162 l-714 0 l0 -463 l677 0 l0 -160 l-677 0 l0 -496 l714 0 ZM267 1873 l154 0 q0 -79 56.5 -126 q56.5 -47 153.5 -47 q97 0 153.5 47 q56.5 47 56.5 126 l154 0 q0 -135 -98 -216.5 q-98 -81.5 -266 -81.5 q-168 0 -266 81.5 q-98 81.5 -98 216.5 Z" /><glyph glyph-name="ebreve" unicode="&#x115;" d="M592 945 q-129 0 -212 -87 q-83 -87 -93 -230 l594 0 q-3 143 -82 230 q-79 87 -207 87 ZM876 279 l172 0 q-39 -140 -158.5 -219 q-119.5 -79 -295.5 -79 q-224 0 -355 150.5 q-131 150.5 -131 406.5 q0 255 132 407 q132 152 354 152 q218 0 343 -145 q125 -145 125 -397 l0 -66 l-775 0 l0 -8 q7 -160 90.5 -254 q83.5 -94 220.5 -94 q209 0 278 146 ZM228 1556 l154 0 q0 -89 55.5 -144.5 q55.5 -55.5 154.5 -55.5 q99 0 154.5 55.5 q55.5 55.5 55.5 144.5 l154 0 q0 -145 -98 -236.5 q-98 -91.5 -266 -91.5 q-168 0 -266 91.5 q-98 91.5 -98 236.5 Z" /><glyph glyph-name="Edotaccent" unicode="&#x116;" d="M1078 162 l0 -162 l-894 0 l0 1443 l894 0 l0 -162 l-714 0 l0 -463 l677 0 l0 -160 l-677 0 l0 -496 l714 0 ZM716.5 1610.5 q-35.5 -35.5 -85.5 -35.5 q-50 0 -85.5 35.5 q-35.5 35.5 -35.5 85.5 q0 50 35.5 85.5 q35.5 35.5 85.5 35.5 q50 0 85.5 -35.5 q35.5 -35.5 35.5 -85.5 q0 -50 -35.5 -85.5 Z" /><glyph glyph-name="edotaccent" unicode="&#x117;" d="M592 945 q-129 0 -212 -87 q-83 -87 -93 -230 l594 0 q-3 143 -82 230 q-79 87 -207 87 ZM876 279 l172 0 q-39 -140 -158.5 -219 q-119.5 -79 -295.5 -79 q-224 0 -355 150.5 q-131 150.5 -131 406.5 q0 255 132 407 q132 152 354 152 q218 0 343 -145 q125 -145 125 -397 l0 -66 l-775 0 l0 -8 q7 -160 90.5 -254 q83.5 -94 220.5 -94 q209 0 278 146 ZM684 1324.5 q-38 -37.5 -90 -37.5 q-52 0 -90 37.5 q-38 37.5 -38 90.5 q0 52 37.5 89.5 q37.5 37.5 90.5 37.5 q53 0 90.5 -37.5 q37.5 -37.5 37.5 -89.5 q0 -53 -38 -90.5 Z" /><glyph glyph-name="Eogonek" unicode="&#x118;" d="M184 0 l0 1443 l894 0 l0 -162 l-714 0 l0 -463 l677 0 l0 -160 l-677 0 l0 -496 l714 0 l0 -150 l-42 -16 q-79 -30 -131.5 -77.5 q-52.5 -47.5 -52.5 -108.5 q0 -46 33 -72 q33 -26 79 -26 q42 0 66 6 l0 -134 q-46 -16 -104 -16 q-109 0 -176 58.5 q-67 58.5 -67 145.5 q0 67 38.5 122.5 q38.5 55.5 102.5 89.5 l0 16 l-640 0 Z" /><glyph glyph-name="eogonek" unicode="&#x119;" d="M788 -432 q-109 0 -176 58.5 q-67 58.5 -67 145.5 q0 123 131 208 l0 16 q-30 -15 -82 -15 q-224 0 -355 150.5 q-131 150.5 -131 406.5 q0 255 132 407 q132 152 354 152 q218 0 343 -145 q125 -145 125 -397 l0 -66 l-775 0 l0 -8 q7 -160 90.5 -254 q83.5 -94 220.5 -94 q209 0 278 146 l172 0 q-13 -51 -58.5 -118 q-45.5 -67 -107.5 -117 q-85 -70 -126.5 -124 q-41.5 -54 -41.5 -110 q0 -46 33 -72 q33 -26 79 -26 q42 0 66 6 l0 -134 q-46 -16 -104 -16 ZM592 945 q-129 0 -212 -87 q-83 -87 -93 -230 l594 0 q-3 143 -82 230 q-79 87 -207 87 Z" /><glyph glyph-name="Ecaron" unicode="&#x11a;" d="M1078 162 l0 -162 l-894 0 l0 1443 l894 0 l0 -162 l-714 0 l0 -463 l677 0 l0 -160 l-677 0 l0 -496 l714 0 ZM549 1575 l-300 298 l202 0 l172 -177 l16 0 l172 177 l202 0 l-300 -298 l-164 0 Z" /><glyph glyph-name="ecaron" unicode="&#x11b;" d="M592 945 q-129 0 -212 -87 q-83 -87 -93 -230 l594 0 q-3 143 -82 230 q-79 87 -207 87 ZM876 279 l172 0 q-39 -140 -158.5 -219 q-119.5 -79 -295.5 -79 q-224 0 -355 150.5 q-131 150.5 -131 406.5 q0 255 132 407 q132 152 354 152 q218 0 343 -145 q125 -145 125 -397 l0 -66 l-775 0 l0 -8 q7 -160 90.5 -254 q83.5 -94 220.5 -94 q209 0 278 146 ZM695 1228 l-202 0 l-282 340 l198 0 l177 -227 l16 0 l177 227 l198 0 l-282 -340 Z" /><glyph glyph-name="Gcircumflex" unicode="&#x11c;" d="M1395 558 q0 -267 -168 -429.5 q-168 -162.5 -445 -162.5 q-299 0 -476.5 205 q-177.5 205 -177.5 551 q0 342 179 548.5 q179 206.5 475 206.5 q240 0 402.5 -125 q162.5 -125 201.5 -339 l-183 0 q-47 146 -154 222 q-107 76 -267 76 q-214 0 -341.5 -160 q-127.5 -160 -127.5 -429 q0 -273 126.5 -431.5 q126.5 -158.5 343.5 -158.5 q194 0 313.5 113 q119.5 113 119.5 296 l0 35 l-406 0 l0 158 l585 0 l0 -176 ZM700 1873 l164 0 l300 -298 l-202 0 l-172 177 l-16 0 l-172 -177 l-202 0 l300 298 Z" /><glyph glyph-name="gcircumflex" unicode="&#x11d;" d="M598 168 q149 0 234.5 104.5 q85.5 104.5 85.5 282.5 q0 177 -86 282 q-86 105 -234 105 q-148 0 -230 -104 q-82 -104 -82 -283 q0 -179 82 -283 q82 -104 230 -104 ZM606 -414 q-193 0 -312.5 80 q-119.5 80 -139.5 215 l182 0 q14 -67 85 -106 q71 -39 185 -39 q145 0 226.5 67.5 q81.5 67.5 81.5 186.5 l0 212 l-16 0 q-51 -89 -139 -137.5 q-88 -48.5 -199 -48.5 q-208 0 -330 147.5 q-122 147.5 -122 391.5 q0 244 123 393 q123 149 329 149 q113 0 206 -51.5 q93 -51.5 140 -138.5 l16 0 l0 171 l164 0 l0 -1097 q0 -181 -130 -288 q-130 -107 -350 -107 ZM695 1568 l282 -340 l-198 0 l-177 227 l-16 0 l-177 -227 l-198 0 l282 340 l202 0 Z" /><glyph glyph-name="Gbreve" unicode="&#x11e;" d="M1395 558 q0 -267 -168 -429.5 q-168 -162.5 -445 -162.5 q-299 0 -476.5 205 q-177.5 205 -177.5 551 q0 342 179 548.5 q179 206.5 475 206.5 q240 0 402.5 -125 q162.5 -125 201.5 -339 l-183 0 q-47 146 -154 222 q-107 76 -267 76 q-214 0 -341.5 -160 q-127.5 -160 -127.5 -429 q0 -273 126.5 -431.5 q126.5 -158.5 343.5 -158.5 q194 0 313.5 113 q119.5 113 119.5 296 l0 35 l-406 0 l0 158 l585 0 l0 -176 ZM418 1873 l154 0 q0 -79 56.5 -126 q56.5 -47 153.5 -47 q97 0 153.5 47 q56.5 47 56.5 126 l154 0 q0 -135 -98 -216.5 q-98 -81.5 -266 -81.5 q-168 0 -266 81.5 q-98 81.5 -98 216.5 Z" /><glyph glyph-name="gbreve" unicode="&#x11f;" d="M598 168 q149 0 234.5 104.5 q85.5 104.5 85.5 282.5 q0 177 -86 282 q-86 105 -234 105 q-148 0 -230 -104 q-82 -104 -82 -283 q0 -179 82 -283 q82 -104 230 -104 ZM606 -414 q-193 0 -312.5 80 q-119.5 80 -139.5 215 l182 0 q14 -67 85 -106 q71 -39 185 -39 q145 0 226.5 67.5 q81.5 67.5 81.5 186.5 l0 212 l-16 0 q-51 -89 -139 -137.5 q-88 -48.5 -199 -48.5 q-208 0 -330 147.5 q-122 147.5 -122 391.5 q0 244 123 393 q123 149 329 149 q113 0 206 -51.5 q93 -51.5 140 -138.5 l16 0 l0 171 l164 0 l0 -1097 q0 -181 -130 -288 q-130 -107 -350 -107 ZM228 1556 l154 0 q0 -89 55.5 -144.5 q55.5 -55.5 154.5 -55.5 q99 0 154.5 55.5 q55.5 55.5 55.5 144.5 l154 0 q0 -145 -98 -236.5 q-98 -91.5 -266 -91.5 q-168 0 -266 91.5 q-98 91.5 -98 236.5 Z" /><glyph glyph-name="Gdotaccent" unicode="&#x120;" d="M1395 558 q0 -267 -168 -429.5 q-168 -162.5 -445 -162.5 q-299 0 -476.5 205 q-177.5 205 -177.5 551 q0 342 179 548.5 q179 206.5 475 206.5 q240 0 402.5 -125 q162.5 -125 201.5 -339 l-183 0 q-47 146 -154 222 q-107 76 -267 76 q-214 0 -341.5 -160 q-127.5 -160 -127.5 -429 q0 -273 126.5 -431.5 q126.5 -158.5 343.5 -158.5 q194 0 313.5 113 q119.5 113 119.5 296 l0 35 l-406 0 l0 158 l585 0 l0 -176 ZM867.5 1610.5 q-35.5 -35.5 -85.5 -35.5 q-50 0 -85.5 35.5 q-35.5 35.5 -35.5 85.5 q0 50 35.5 85.5 q35.5 35.5 85.5 35.5 q50 0 85.5 -35.5 q35.5 -35.5 35.5 -85.5 q0 -50 -35.5 -85.5 Z" /><glyph glyph-name="gdotaccent" unicode="&#x121;" d="M598 168 q149 0 234.5 104.5 q85.5 104.5 85.5 282.5 q0 177 -86 282 q-86 105 -234 105 q-148 0 -230 -104 q-82 -104 -82 -283 q0 -179 82 -283 q82 -104 230 -104 ZM606 -414 q-193 0 -312.5 80 q-119.5 80 -139.5 215 l182 0 q14 -67 85 -106 q71 -39 185 -39 q145 0 226.5 67.5 q81.5 67.5 81.5 186.5 l0 212 l-16 0 q-51 -89 -139 -137.5 q-88 -48.5 -199 -48.5 q-208 0 -330 147.5 q-122 147.5 -122 391.5 q0 244 123 393 q123 149 329 149 q113 0 206 -51.5 q93 -51.5 140 -138.5 l16 0 l0 171 l164 0 l0 -1097 q0 -181 -130 -288 q-130 -107 -350 -107 ZM684 1324.5 q-38 -37.5 -90 -37.5 q-52 0 -90 37.5 q-38 37.5 -38 90.5 q0 52 37.5 89.5 q37.5 37.5 90.5 37.5 q53 0 90.5 -37.5 q37.5 -37.5 37.5 -89.5 q0 -53 -38 -90.5 Z" /><glyph glyph-name="Gcommaaccent" unicode="&#x122;" d="M1395 558 q0 -267 -168 -429.5 q-168 -162.5 -445 -162.5 q-299 0 -476.5 205 q-177.5 205 -177.5 551 q0 342 179 548.5 q179 206.5 475 206.5 q240 0 402.5 -125 q162.5 -125 201.5 -339 l-183 0 q-47 146 -154 222 q-107 76 -267 76 q-214 0 -341.5 -160 q-127.5 -160 -127.5 -429 q0 -273 126.5 -431.5 q126.5 -158.5 343.5 -158.5 q194 0 313.5 113 q119.5 113 119.5 296 l0 35 l-406 0 l0 158 l585 0 l0 -176 ZM785 -518 l-167 0 l102 377 l182 0 l-117 -377 Z" /><glyph glyph-name="gcommaaccent" unicode="&#x123;" d="M598 168 q149 0 234.5 104.5 q85.5 104.5 85.5 282.5 q0 177 -86 282 q-86 105 -234 105 q-148 0 -230 -104 q-82 -104 -82 -283 q0 -179 82 -283 q82 -104 230 -104 ZM606 -414 q-193 0 -312.5 80 q-119.5 80 -139.5 215 l182 0 q14 -67 85 -106 q71 -39 185 -39 q145 0 226.5 67.5 q81.5 67.5 81.5 186.5 l0 212 l-16 0 q-51 -89 -139 -137.5 q-88 -48.5 -199 -48.5 q-208 0 -330 147.5 q-122 147.5 -122 391.5 q0 244 123 393 q123 149 329 149 q113 0 206 -51.5 q93 -51.5 140 -138.5 l16 0 l0 171 l164 0 l0 -1097 q0 -181 -130 -288 q-130 -107 -350 -107 ZM604 1663 l167 0 l-102 -377 l-182 0 l117 377 Z" /><glyph glyph-name="Hcircumflex" unicode="&#x124;" d="M1336 0 l-180 0 l0 657 l-792 0 l0 -657 l-180 0 l0 1443 l180 0 l0 -624 l792 0 l0 624 l180 0 l0 -1443 ZM678 1873 l164 0 l300 -298 l-202 0 l-172 177 l-16 0 l-172 -177 l-202 0 l300 298 Z" /><glyph glyph-name="hcircumflex" unicode="&#x125;" d="M172 0 l0 1506 l172 0 l0 -598 l16 0 q41 91 125.5 140 q84.5 49 206.5 49 q172 0 272 -105.5 q100 -105.5 100 -293.5 l0 -698 l-172 0 l0 656 q0 286 -249 286 q-142 0 -220.5 -82.5 q-78.5 -82.5 -78.5 -221.5 l0 -638 l-172 0 ZM176 1936 l164 0 l300 -298 l-202 0 l-172 177 l-16 0 l-172 -177 l-202 0 l300 298 Z" /><glyph glyph-name="Hbar" unicode="&#x126;" d="M1156 819 l0 256 l-792 0 l0 -256 l792 0 ZM1472 1218 l0 -143 l-136 0 l0 -1075 l-180 0 l0 657 l-792 0 l0 -657 l-180 0 l0 1075 l-136 0 l0 143 l136 0 l0 225 l180 0 l0 -225 l792 0 l0 225 l180 0 l0 -225 l136 0 Z" /><glyph glyph-name="hbar" unicode="&#x127;" d="M344 908 l16 0 q41 91 125.5 140 q84.5 49 206.5 49 q172 0 272 -105.5 q100 -105.5 100 -293.5 l0 -698 l-172 0 l0 656 q0 286 -249 286 q-142 0 -220.5 -82.5 q-78.5 -82.5 -78.5 -221.5 l0 -638 l-172 0 l0 1277 l-144 0 l0 124 l144 0 l0 105 l172 0 l0 -105 l260 0 l0 -124 l-260 0 l0 -369 Z" /><glyph glyph-name="Itilde" unicode="&#x128;" d="M364 0 l-180 0 l0 1443 l180 0 l0 -1443 ZM419 1580 q-44 0 -82.5 16 q-38.5 16 -64.5 39 q-26 23 -48 46.5 q-22 23.5 -44.5 39.5 q-22.5 16 -44.5 16 q-53 0 -75.5 -36 q-22.5 -36 -22.5 -121 l-142 0 q0 136 61.5 213.5 q61.5 77.5 170.5 77.5 q44 0 82.5 -16 q38.5 -16 64.5 -39.5 q26 -23.5 48 -46.5 q22 -23 44.5 -39 q22.5 -16 44.5 -16 q53 0 75.5 36 q22.5 36 22.5 121 l142 0 q0 -136 -61.5 -213.5 q-61.5 -77.5 -170.5 -77.5 Z" /><glyph glyph-name="itilde" unicode="&#x129;" d="M166 0 l0 1078 l172 0 l0 -1078 l-172 0 ZM398 1231 q-44 0 -82.5 16 q-38.5 16 -64.5 39.5 q-26 23.5 -48 46.5 q-22 23 -44.5 39 q-22.5 16 -44.5 16 q-53 0 -75.5 -36 q-22.5 -36 -22.5 -121 l-142 0 q0 136 61.5 213.5 q61.5 77.5 170.5 77.5 q44 0 82.5 -16 q38.5 -16 64.5 -39 q26 -23 48 -46.5 q22 -23.5 44.5 -39.5 q22.5 -16 44.5 -16 q53 0 75.5 36 q22.5 36 22.5 121 l142 0 q0 -136 -61.5 -213.5 q-61.5 -77.5 -170.5 -77.5 Z" /><glyph glyph-name="Imacron" unicode="&#x12a;" d="M364 0 l-180 0 l0 1443 l180 0 l0 -1443 ZM611 1756 l0 -136 l-674 0 l0 136 l674 0 Z" /><glyph glyph-name="imacron" unicode="&#x12b;" d="M166 0 l0 1078 l172 0 l0 -1078 l-172 0 ZM538 1422 l0 -136 l-572 0 l0 136 l572 0 Z" /><glyph glyph-name="Ibreve" unicode="&#x12c;" d="M364 0 l-180 0 l0 1443 l180 0 l0 -1443 ZM-90 1873 l154 0 q0 -79 56.5 -126 q56.5 -47 153.5 -47 q97 0 153.5 47 q56.5 47 56.5 126 l154 0 q0 -135 -98 -216.5 q-98 -81.5 -266 -81.5 q-168 0 -266 81.5 q-98 81.5 -98 216.5 Z" /><glyph glyph-name="ibreve" unicode="&#x12d;" d="M166 0 l0 1078 l172 0 l0 -1078 l-172 0 ZM-114 1556 l154 0 q0 -89 55.5 -144.5 q55.5 -55.5 154.5 -55.5 q99 0 154.5 55.5 q55.5 55.5 55.5 144.5 l154 0 q0 -145 -98 -236.5 q-98 -91.5 -266 -91.5 q-168 0 -266 91.5 q-98 91.5 -98 236.5 Z" /><glyph glyph-name="Iogonek" unicode="&#x12e;" d="M184 0 l0 1443 l180 0 l0 -1443 l-5 -3 q-147 -88 -147 -187 q0 -43 31.5 -70.5 q31.5 -27.5 80.5 -27.5 q44 0 66 6 l0 -134 q-45 -16 -104 -16 q-106 0 -174.5 57.5 q-68.5 57.5 -68.5 146.5 q0 68 36.5 127.5 q36.5 59.5 104.5 100.5 Z" /><glyph glyph-name="iogonek" unicode="&#x12f;" d="M337 1332.5 q-35 -35.5 -85 -35.5 q-50 0 -85 35.5 q-35 35.5 -35 84.5 q0 49 35 84.5 q35 35.5 85 35.5 q50 0 85 -35.5 q35 -35.5 35 -84.5 q0 -49 -35 -84.5 ZM166 4 l0 1074 l172 0 l0 -1078 l-5 -3 q-147 -88 -147 -187 q0 -46 33 -72 q33 -26 79 -26 q42 0 66 6 l0 -134 q-46 -16 -104 -16 q-109 0 -176 58.5 q-67 58.5 -67 145.5 q0 144 149 232 Z" /><glyph glyph-name="Idotaccent" unicode="&#x130;" d="M364 0 l-180 0 l0 1443 l180 0 l0 -1443 ZM359.5 1610.5 q-35.5 -35.5 -85.5 -35.5 q-50 0 -85.5 35.5 q-35.5 35.5 -35.5 85.5 q0 50 35.5 85.5 q35.5 35.5 85.5 35.5 q50 0 85.5 -35.5 q35.5 -35.5 35.5 -85.5 q0 -50 -35.5 -85.5 Z" /><glyph glyph-name="dotlessi" unicode="&#x131;" d="M166 0 l0 1078 l172 0 l0 -1078 l-172 0 Z" /><glyph glyph-name="IJ" unicode="&#x132;" d="M364 0 l-180 0 l0 1443 l180 0 l0 -1443 ZM634 337 l179 0 q3 -91 67 -148 q64 -57 165 -57 q116 0 178.5 69.5 q62.5 69.5 62.5 201.5 l0 1040 l180 0 l0 -1041 q0 -206 -112 -321 q-112 -115 -308 -115 q-182 0 -297 103 q-115 103 -115 268 Z" /><glyph glyph-name="ij" unicode="&#x133;" d="M166 0 l0 1078 l172 0 l0 -1078 l-172 0 ZM337 1332.5 q-35 -35.5 -85 -35.5 q-50 0 -85 35.5 q-35 35.5 -35 84.5 q0 49 35 84.5 q35 35.5 85 35.5 q50 0 85 -35.5 q35 -35.5 35 -84.5 q0 -49 -35 -84.5 ZM854 1078 l0 -1131 q0 -166 -80 -241.5 q-80 -75.5 -250 -75.5 l-30 0 l0 147 l26 0 q90 0 126 38 q36 38 36 129 l0 1134 l172 0 ZM853 1332.5 q-35 -35.5 -85 -35.5 q-50 0 -85 35.5 q-35 35.5 -35 84.5 q0 49 35 84.5 q35 35.5 85 35.5 q50 0 85 -35.5 q35 -35.5 35 -84.5 q0 -49 -35 -84.5 Z" /><glyph glyph-name="Jcircumflex" unicode="&#x134;" d="M86 337 l179 0 q3 -91 67 -148 q64 -57 165 -57 q116 0 178.5 69.5 q62.5 69.5 62.5 201.5 l0 1040 l180 0 l0 -1041 q0 -206 -112 -321 q-112 -115 -308 -115 q-182 0 -297 103 q-115 103 -115 268 ZM746 1873 l164 0 l300 -298 l-202 0 l-172 177 l-16 0 l-172 -177 l-202 0 l300 298 Z" /><glyph glyph-name="jcircumflex" unicode="&#x135;" d="M332 1078 l0 -1131 q0 -166 -80 -241.5 q-80 -75.5 -250 -75.5 l-30 0 l0 147 l26 0 q90 0 126 38 q36 38 36 129 l0 1134 l172 0 ZM355 1568 l282 -340 l-198 0 l-177 227 l-16 0 l-177 -227 l-198 0 l282 340 l202 0 Z" /><glyph glyph-name="Kcommaaccent" unicode="&#x136;" d="M364 0 l-180 0 l0 1443 l180 0 l0 -701 l16 0 l632 701 l226 0 l-577 -623 l630 -820 l-233 0 l-521 695 l-173 -191 l0 -504 ZM656 -518 l-167 0 l102 377 l182 0 l-117 -377 Z" /><glyph glyph-name="kcommaaccent" unicode="&#x137;" d="M360 607 l468 471 l211 0 l-464 -462 l495 -616 l-219 0 l-404 505 l-103 -96 l0 -409 l-172 0 l0 1506 l172 0 l0 -899 l16 0 ZM606 -518 l-167 0 l102 377 l182 0 l-117 -377 Z" /><glyph glyph-name="Lacute" unicode="&#x139;" d="M1060 162 l0 -162 l-876 0 l0 1443 l180 0 l0 -1281 l696 0 ZM372 1575 l-204 0 l310 298 l226 0 l-332 -298 Z" /><glyph glyph-name="lacute" unicode="&#x13a;" d="M172 0 l0 1506 l172 0 l0 -1506 l-172 0 ZM356 1638 l-204 0 l310 298 l226 0 l-332 -298 Z" /><glyph glyph-name="Lcommaaccent" unicode="&#x13b;" d="M1060 162 l0 -162 l-876 0 l0 1443 l180 0 l0 -1281 l696 0 ZM625 -518 l-167 0 l102 377 l182 0 l-117 -377 Z" /><glyph glyph-name="lcommaaccent" unicode="&#x13c;" d="M172 0 l0 1506 l172 0 l0 -1506 l-172 0 ZM261 -518 l-167 0 l102 377 l182 0 l-117 -377 Z" /><glyph glyph-name="Lcaron" unicode="&#x13d;" d="M589 1443 l170 0 l-50 -488 l-120 0 l0 488 ZM1060 162 l0 -162 l-876 0 l0 1443 l180 0 l0 -1281 l696 0 Z" /><glyph glyph-name="lcaron" unicode="&#x13e;" d="M495 1506 l170 0 l-50 -488 l-120 0 l0 488 ZM172 0 l0 1506 l172 0 l0 -1506 l-172 0 Z" /><glyph glyph-name="Lslash" unicode="&#x141;" d="M364 162 l696 0 l0 -162 l-876 0 l0 719 l-166 -76 l0 143 l166 76 l0 581 l180 0 l0 -499 l292 133 l0 -143 l-292 -133 l0 -639 Z" /><glyph glyph-name="lslash" unicode="&#x142;" d="M472 994 l0 -143 l-128 -61 l0 -790 l-172 0 l0 707 l-128 -61 l0 143 l128 61 l0 656 l172 0 l0 -573 l128 61 Z" /><glyph glyph-name="Nacute" unicode="&#x143;" d="M362 0 l-178 0 l0 1443 l175 0 l783 -1123 l16 0 l0 1123 l178 0 l0 -1443 l-175 0 l-783 1119 l-16 0 l0 -1119 ZM858 1575 l-204 0 l310 298 l226 0 l-332 -298 Z" /><glyph glyph-name="nacute" unicode="&#x144;" d="M162 0 l0 1078 l164 0 l0 -170 l16 0 q86 189 324 189 q181 0 279 -103.5 q98 -103.5 98 -295.5 l0 -698 l-172 0 l0 656 q0 145 -62.5 215.5 q-62.5 70.5 -191.5 70.5 q-130 0 -206.5 -81.5 q-76.5 -81.5 -76.5 -222.5 l0 -638 l-172 0 ZM683 1263 l-194 0 l252 338 l220 0 l-278 -338 Z" /><glyph glyph-name="Ncommaaccent" unicode="&#x145;" d="M362 0 l-178 0 l0 1443 l175 0 l783 -1123 l16 0 l0 1123 l178 0 l0 -1443 l-175 0 l-783 1119 l-16 0 l0 -1119 ZM763 -518 l-167 0 l102 377 l182 0 l-117 -377 Z" /><glyph glyph-name="ncommaaccent" unicode="&#x146;" d="M162 0 l0 1078 l164 0 l0 -170 l16 0 q86 189 324 189 q181 0 279 -103.5 q98 -103.5 98 -295.5 l0 -698 l-172 0 l0 656 q0 145 -62.5 215.5 q-62.5 70.5 -191.5 70.5 q-130 0 -206.5 -81.5 q-76.5 -81.5 -76.5 -222.5 l0 -638 l-172 0 ZM606 -518 l-167 0 l102 377 l182 0 l-117 -377 Z" /><glyph glyph-name="Ncaron" unicode="&#x147;" d="M362 0 l-178 0 l0 1443 l175 0 l783 -1123 l16 0 l0 1123 l178 0 l0 -1443 l-175 0 l-783 1119 l-16 0 l0 -1119 ZM678 1575 l-300 298 l202 0 l172 -177 l16 0 l172 177 l202 0 l-300 -298 l-164 0 Z" /><glyph glyph-name="ncaron" unicode="&#x148;" d="M162 0 l0 1078 l164 0 l0 -170 l16 0 q86 189 324 189 q181 0 279 -103.5 q98 -103.5 98 -295.5 l0 -698 l-172 0 l0 656 q0 145 -62.5 215.5 q-62.5 70.5 -191.5 70.5 q-130 0 -206.5 -81.5 q-76.5 -81.5 -76.5 -222.5 l0 -638 l-172 0 ZM704 1228 l-202 0 l-282 340 l198 0 l177 -227 l16 0 l177 227 l198 0 l-282 -340 Z" /><glyph glyph-name="Omacron" unicode="&#x14c;" d="M791 1477 q307 0 483.5 -203.5 q176.5 -203.5 176.5 -551.5 q0 -348 -176.5 -552 q-176.5 -204 -483.5 -204 q-309 0 -486 204 q-177 204 -177 552 q0 348 178.5 551.5 q178.5 203.5 484.5 203.5 ZM791 1311 q-220 0 -349 -159 q-129 -159 -129 -430 q0 -271 127.5 -430.5 q127.5 -159.5 350.5 -159.5 q221 0 348 160 q127 160 127 430 q0 272 -127 430.5 q-127 158.5 -348 158.5 ZM1128 1756 l0 -136 l-674 0 l0 136 l674 0 Z" /><glyph glyph-name="omacron" unicode="&#x14d;" d="M968.5 130.5 q-133.5 -149.5 -363.5 -149.5 q-230 0 -363.5 149.5 q-133.5 149.5 -133.5 408.5 q0 260 133 409 q133 149 364 149 q231 0 364 -149 q133 -149 133 -409 q0 -259 -133.5 -408.5 ZM369 241.5 q83 -105.5 236 -105.5 q153 0 236 105.5 q83 105.5 83 297.5 q0 192 -83 297.5 q-83 105.5 -236 105.5 q-153 0 -236 -105.5 q-83 -105.5 -83 -297.5 q0 -192 83 -297.5 ZM942 1422 l0 -136 l-674 0 l0 136 l674 0 Z" /><glyph glyph-name="Obreve" unicode="&#x14e;" d="M791 1477 q307 0 483.5 -203.5 q176.5 -203.5 176.5 -551.5 q0 -348 -176.5 -552 q-176.5 -204 -483.5 -204 q-309 0 -486 204 q-177 204 -177 552 q0 348 178.5 551.5 q178.5 203.5 484.5 203.5 ZM791 1311 q-220 0 -349 -159 q-129 -159 -129 -430 q0 -271 127.5 -430.5 q127.5 -159.5 350.5 -159.5 q221 0 348 160 q127 160 127 430 q0 272 -127 430.5 q-127 158.5 -348 158.5 ZM427 1873 l154 0 q0 -79 56.5 -126 q56.5 -47 153.5 -47 q97 0 153.5 47 q56.5 47 56.5 126 l154 0 q0 -135 -98 -216.5 q-98 -81.5 -266 -81.5 q-168 0 -266 81.5 q-98 81.5 -98 216.5 Z" /><glyph glyph-name="obreve" unicode="&#x14f;" d="M968.5 130.5 q-133.5 -149.5 -363.5 -149.5 q-230 0 -363.5 149.5 q-133.5 149.5 -133.5 408.5 q0 260 133 409 q133 149 364 149 q231 0 364 -149 q133 -149 133 -409 q0 -259 -133.5 -408.5 ZM369 241.5 q83 -105.5 236 -105.5 q153 0 236 105.5 q83 105.5 83 297.5 q0 192 -83 297.5 q-83 105.5 -236 105.5 q-153 0 -236 -105.5 q-83 -105.5 -83 -297.5 q0 -192 83 -297.5 ZM239 1556 l154 0 q0 -89 55.5 -144.5 q55.5 -55.5 154.5 -55.5 q99 0 154.5 55.5 q55.5 55.5 55.5 144.5 l154 0 q0 -145 -98 -236.5 q-98 -91.5 -266 -91.5 q-168 0 -266 91.5 q-98 91.5 -98 236.5 Z" /><glyph glyph-name="Ohungarumlaut" unicode="&#x150;" d="M791 1477 q307 0 483.5 -203.5 q176.5 -203.5 176.5 -551.5 q0 -348 -176.5 -552 q-176.5 -204 -483.5 -204 q-309 0 -486 204 q-177 204 -177 552 q0 348 178.5 551.5 q178.5 203.5 484.5 203.5 ZM791 1311 q-220 0 -349 -159 q-129 -159 -129 -430 q0 -271 127.5 -430.5 q127.5 -159.5 350.5 -159.5 q221 0 348 160 q127 160 127 430 q0 272 -127 430.5 q-127 158.5 -348 158.5 ZM1045 1575 l-204 0 l310 298 l226 0 l-332 -298 ZM631 1575 l-204 0 l310 298 l226 0 l-332 -298 Z" /><glyph glyph-name="ohungarumlaut" unicode="&#x151;" d="M968.5 130.5 q-133.5 -149.5 -363.5 -149.5 q-230 0 -363.5 149.5 q-133.5 149.5 -133.5 408.5 q0 260 133 409 q133 149 364 149 q231 0 364 -149 q133 -149 133 -409 q0 -259 -133.5 -408.5 ZM369 241.5 q83 -105.5 236 -105.5 q153 0 236 105.5 q83 105.5 83 297.5 q0 192 -83 297.5 q-83 105.5 -236 105.5 q-153 0 -236 -105.5 q-83 -105.5 -83 -297.5 q0 -192 83 -297.5 ZM670 1263 l252 338 l210 0 l-280 -338 l-182 0 ZM270 1263 l252 338 l210 0 l-280 -338 l-182 0 Z" /><glyph glyph-name="OE" unicode="&#x152;" d="M801 1311 q-226 0 -357 -158 q-131 -158 -131 -431 q0 -275 130.5 -432.5 q130.5 -157.5 357.5 -157.5 q217 0 342 157.5 q125 157.5 125 432.5 q0 274 -124.5 431.5 q-124.5 157.5 -342.5 157.5 ZM1289 0 l0 247 l-16 0 q-66 -126 -201.5 -203.5 q-135.5 -77.5 -290.5 -77.5 q-301 0 -477 203.5 q-176 203.5 -176 552.5 q0 347 176.5 551 q176.5 204 476.5 204 q152 0 288.5 -75 q136.5 -75 203.5 -196 l16 0 l0 237 l894 0 l0 -162 l-732 0 l0 -463 l695 0 l0 -160 l-695 0 l0 -496 l732 0 l0 -162 l-894 0 Z" /><glyph glyph-name="oe" unicode="&#x153;" d="M1411 -19 q-134 0 -241.5 62.5 q-107.5 62.5 -148.5 165.5 l-16 0 q-42 -103 -151.5 -165.5 q-109.5 -62.5 -248.5 -62.5 q-231 0 -364 149.5 q-133 149.5 -133 408.5 q0 259 133 408.5 q133 149.5 364 149.5 q135 0 241 -61.5 q106 -61.5 160 -170.5 l16 0 q54 109 157 170.5 q103 61.5 232 61.5 q218 0 343 -144.5 q125 -144.5 125 -396.5 l0 -66 l-775 0 l0 -8 q7 -160 90.5 -254 q83.5 -94 220.5 -94 q210 0 278 145 l172 0 q-40 -140 -159.5 -219 q-119.5 -79 -294.5 -79 ZM1698 629 q-3 143 -82 230 q-79 87 -207 87 q-128 0 -211.5 -86.5 q-83.5 -86.5 -93.5 -230.5 l594 0 ZM286 539 q0 -192 83.5 -297.5 q83.5 -105.5 235.5 -105.5 q152 0 235.5 105.5 q83.5 105.5 83.5 297.5 q0 193 -83.5 298 q-83.5 105 -235.5 105 q-152 0 -235.5 -105 q-83.5 -105 -83.5 -298 Z" /><glyph glyph-name="Racute" unicode="&#x154;" d="M364 1283 l0 -552 l355 0 q139 0 214.5 71.5 q75.5 71.5 75.5 204.5 q0 130 -79 203 q-79 73 -219 73 l-347 0 ZM364 571 l0 -571 l-180 0 l0 1443 l551 0 q209 0 334.5 -117.5 q125.5 -117.5 125.5 -312.5 q0 -151 -77 -261 q-77 -110 -213 -153 l334 -599 l-211 0 l-309 571 l-355 0 ZM707 1575 l-204 0 l310 298 l226 0 l-332 -298 Z" /><glyph glyph-name="racute" unicode="&#x155;" d="M162 0 l0 1078 l164 0 l0 -160 l16 0 q24 79 108 129 q84 50 191 50 q49 0 86 -5 l0 -172 q-35 10 -110 10 q-123 0 -203 -74 q-80 -74 -80 -188 l0 -668 l-172 0 ZM458 1263 l-194 0 l252 338 l220 0 l-278 -338 Z" /><glyph glyph-name="Rcommaaccent" unicode="&#x156;" d="M364 1283 l0 -552 l355 0 q139 0 214.5 71.5 q75.5 71.5 75.5 204.5 q0 130 -79 203 q-79 73 -219 73 l-347 0 ZM364 571 l0 -571 l-180 0 l0 1443 l551 0 q209 0 334.5 -117.5 q125.5 -117.5 125.5 -312.5 q0 -151 -77 -261 q-77 -110 -213 -153 l334 -599 l-211 0 l-309 571 l-355 0 ZM612 -518 l-167 0 l102 377 l182 0 l-117 -377 Z" /><glyph glyph-name="rcommaaccent" unicode="&#x157;" d="M162 0 l0 1078 l164 0 l0 -160 l16 0 q24 79 108 129 q84 50 191 50 q49 0 86 -5 l0 -172 q-35 10 -110 10 q-123 0 -203 -74 q-80 -74 -80 -188 l0 -668 l-172 0 ZM251 -518 l-167 0 l102 377 l182 0 l-117 -377 Z" /><glyph glyph-name="Rcaron" unicode="&#x158;" d="M364 1283 l0 -552 l355 0 q139 0 214.5 71.5 q75.5 71.5 75.5 204.5 q0 130 -79 203 q-79 73 -219 73 l-347 0 ZM364 571 l0 -571 l-180 0 l0 1443 l551 0 q209 0 334.5 -117.5 q125.5 -117.5 125.5 -312.5 q0 -151 -77 -261 q-77 -110 -213 -153 l334 -599 l-211 0 l-309 571 l-355 0 ZM527 1575 l-300 298 l202 0 l172 -177 l16 0 l172 177 l202 0 l-300 -298 l-164 0 Z" /><glyph glyph-name="rcaron" unicode="&#x159;" d="M162 0 l0 1078 l164 0 l0 -160 l16 0 q24 79 108 129 q84 50 191 50 q49 0 86 -5 l0 -172 q-35 10 -110 10 q-123 0 -203 -74 q-80 -74 -80 -188 l0 -668 l-172 0 ZM479 1228 l-202 0 l-282 340 l198 0 l177 -227 l16 0 l177 227 l198 0 l-282 -340 Z" /><glyph glyph-name="Sacute" unicode="&#x15a;" d="M115 377 l182 0 q17 -113 117 -180 q100 -67 254 -67 q146 0 241.5 70.5 q95.5 70.5 95.5 177.5 q0 92 -70 152.5 q-70 60.5 -219 98.5 l-185 48 q-196 49 -285 142 q-89 93 -89 247 q0 184 140.5 297.5 q140.5 113.5 369.5 113.5 q209 0 350 -112 q141 -112 152 -287 l-181 0 q-19 111 -105.5 173.5 q-86.5 62.5 -221.5 62.5 q-144 0 -231.5 -66.5 q-87.5 -66.5 -87.5 -175.5 q0 -85 64.5 -138 q64.5 -53 213.5 -91 l151 -40 q224 -56 321.5 -150 q97.5 -94 97.5 -253 q0 -199 -146 -316.5 q-146 -117.5 -393 -117.5 q-229 0 -375.5 112 q-146.5 112 -160.5 299 ZM765 1575 l-204 0 l310 298 l226 0 l-332 -298 Z" /><glyph glyph-name="sacute" unicode="&#x15b;" d="M137 783 q0 134 115 224 q115 90 287 90 q169 0 279 -78 q110 -78 127 -211 l-170 0 q-18 66 -79.5 104.5 q-61.5 38.5 -157.5 38.5 q-97 0 -162.5 -45 q-65.5 -45 -65.5 -116 q0 -55 45.5 -91.5 q45.5 -36.5 141.5 -59.5 l166 -40 q154 -37 227.5 -107 q73.5 -70 73.5 -185 q0 -143 -123 -234.5 q-123 -91.5 -309 -91.5 q-180 0 -295 80 q-115 80 -129 214 l177 0 q22 -70 87 -109.5 q65 -39.5 166 -39.5 q109 0 179 47 q70 47 70 121 q0 110 -171 152 l-185 45 q-153 37 -223.5 106.5 q-70.5 69.5 -70.5 185.5 ZM619 1263 l-194 0 l252 338 l220 0 l-278 -338 Z" /><glyph glyph-name="Scircumflex" unicode="&#x15c;" d="M115 377 l182 0 q17 -113 117 -180 q100 -67 254 -67 q146 0 241.5 70.5 q95.5 70.5 95.5 177.5 q0 92 -70 152.5 q-70 60.5 -219 98.5 l-185 48 q-196 49 -285 142 q-89 93 -89 247 q0 184 140.5 297.5 q140.5 113.5 369.5 113.5 q209 0 350 -112 q141 -112 152 -287 l-181 0 q-19 111 -105.5 173.5 q-86.5 62.5 -221.5 62.5 q-144 0 -231.5 -66.5 q-87.5 -66.5 -87.5 -175.5 q0 -85 64.5 -138 q64.5 -53 213.5 -91 l151 -40 q224 -56 321.5 -150 q97.5 -94 97.5 -253 q0 -199 -146 -316.5 q-146 -117.5 -393 -117.5 q-229 0 -375.5 112 q-146.5 112 -160.5 299 ZM585 1873 l164 0 l300 -298 l-202 0 l-172 177 l-16 0 l-172 -177 l-202 0 l300 298 Z" /><glyph glyph-name="scircumflex" unicode="&#x15d;" d="M137 783 q0 134 115 224 q115 90 287 90 q169 0 279 -78 q110 -78 127 -211 l-170 0 q-18 66 -79.5 104.5 q-61.5 38.5 -157.5 38.5 q-97 0 -162.5 -45 q-65.5 -45 -65.5 -116 q0 -55 45.5 -91.5 q45.5 -36.5 141.5 -59.5 l166 -40 q154 -37 227.5 -107 q73.5 -70 73.5 -185 q0 -143 -123 -234.5 q-123 -91.5 -309 -91.5 q-180 0 -295 80 q-115 80 -129 214 l177 0 q22 -70 87 -109.5 q65 -39.5 166 -39.5 q109 0 179 47 q70 47 70 121 q0 110 -171 152 l-185 45 q-153 37 -223.5 106.5 q-70.5 69.5 -70.5 185.5 ZM640 1568 l282 -340 l-198 0 l-177 227 l-16 0 l-177 -227 l-198 0 l282 340 l202 0 Z" /><glyph glyph-name="Scedilla" unicode="&#x15e;" d="M620 843 l151 -40 q224 -56 321.5 -150 q97.5 -94 97.5 -253 q0 -186 -128 -301.5 q-128 -115.5 -348 -130.5 l-39 -100 q102 0 158.5 -43 q56.5 -43 56.5 -120 q0 -85 -65.5 -137 q-65.5 -52 -178.5 -52 q-84 0 -146 18 l0 108 q48 -14 122 -14 q119 0 119 73 q0 35 -35 50 q-35 15 -114 15 l-59 0 l0 84 l48 119 q-202 17 -327.5 126.5 q-125.5 109.5 -138.5 281.5 l182 0 q17 -113 117 -180 q100 -67 254 -67 q146 0 241.5 70.5 q95.5 70.5 95.5 177.5 q0 92 -70 152.5 q-70 60.5 -219 98.5 l-185 48 q-196 49 -285 142 q-89 93 -89 247 q0 184 140.5 297.5 q140.5 113.5 369.5 113.5 q209 0 350 -112 q141 -112 152 -287 l-181 0 q-19 111 -105.5 173.5 q-86.5 62.5 -221.5 62.5 q-144 0 -231.5 -66.5 q-87.5 -66.5 -87.5 -175.5 q0 -85 64.5 -138 q64.5 -53 213.5 -91 Z" /><glyph glyph-name="scedilla" unicode="&#x15f;" d="M497 639 l166 -40 q154 -37 227.5 -107 q73.5 -70 73.5 -185 q0 -129 -101.5 -217 q-101.5 -88 -261.5 -105 l-45 -117 q102 0 158.5 -43 q56.5 -43 56.5 -120 q0 -85 -65.5 -137 q-65.5 -52 -178.5 -52 q-85 0 -146 18 l0 108 q48 -14 122 -14 q119 0 119 73 q0 35 -35 50 q-35 15 -114 15 l-59 0 l0 84 l54 134 q-154 14 -250.5 91.5 q-96.5 77.5 -109.5 199.5 l177 0 q22 -70 87 -109.5 q65 -39.5 166 -39.5 q109 0 179 47 q70 47 70 121 q0 110 -171 152 l-185 45 q-153 37 -223.5 106.5 q-70.5 69.5 -70.5 185.5 q0 134 115 224 q115 90 287 90 q169 0 279 -78 q110 -78 127 -211 l-170 0 q-18 66 -79.5 104.5 q-61.5 38.5 -157.5 38.5 q-97 0 -162.5 -45 q-65.5 -45 -65.5 -116 q0 -55 45.5 -91.5 q45.5 -36.5 141.5 -59.5 Z" /><glyph glyph-name="Scaron" unicode="&#x160;" d="M115 377 l182 0 q17 -113 117 -180 q100 -67 254 -67 q146 0 241.5 70.5 q95.5 70.5 95.5 177.5 q0 92 -70 152.5 q-70 60.5 -219 98.5 l-185 48 q-196 49 -285 142 q-89 93 -89 247 q0 184 140.5 297.5 q140.5 113.5 369.5 113.5 q209 0 350 -112 q141 -112 152 -287 l-181 0 q-19 111 -105.5 173.5 q-86.5 62.5 -221.5 62.5 q-144 0 -231.5 -66.5 q-87.5 -66.5 -87.5 -175.5 q0 -85 64.5 -138 q64.5 -53 213.5 -91 l151 -40 q224 -56 321.5 -150 q97.5 -94 97.5 -253 q0 -199 -146 -316.5 q-146 -117.5 -393 -117.5 q-229 0 -375.5 112 q-146.5 112 -160.5 299 ZM585 1575 l-300 298 l202 0 l172 -177 l16 0 l172 177 l202 0 l-300 -298 l-164 0 Z" /><glyph glyph-name="scaron" unicode="&#x161;" d="M137 783 q0 134 115 224 q115 90 287 90 q169 0 279 -78 q110 -78 127 -211 l-170 0 q-18 66 -79.5 104.5 q-61.5 38.5 -157.5 38.5 q-97 0 -162.5 -45 q-65.5 -45 -65.5 -116 q0 -55 45.5 -91.5 q45.5 -36.5 141.5 -59.5 l166 -40 q154 -37 227.5 -107 q73.5 -70 73.5 -185 q0 -143 -123 -234.5 q-123 -91.5 -309 -91.5 q-180 0 -295 80 q-115 80 -129 214 l177 0 q22 -70 87 -109.5 q65 -39.5 166 -39.5 q109 0 179 47 q70 47 70 121 q0 110 -171 152 l-185 45 q-153 37 -223.5 106.5 q-70.5 69.5 -70.5 185.5 ZM640 1228 l-202 0 l-282 340 l198 0 l177 -227 l16 0 l177 227 l198 0 l-282 -340 Z" /><glyph glyph-name="Tcedilla" unicode="&#x162;" d="M739 22 l0 -22 l-51 -132 q102 0 158.5 -43 q56.5 -43 56.5 -120 q0 -85 -65.5 -137 q-65.5 -52 -178.5 -52 q-85 0 -146 18 l0 108 q48 -14 122 -14 q119 0 119 73 q0 35 -35 50 q-35 15 -114 15 l-59 0 l0 84 l61 150 l-48 0 l0 1281 l-465 0 l0 162 l1110 0 l0 -162 l-465 0 l0 -1259 Z" /><glyph glyph-name="tcedilla" unicode="&#x163;" d="M489 -6 l-49 -126 q102 0 158.5 -43 q56.5 -43 56.5 -120 q0 -85 -65.5 -137 q-65.5 -52 -178.5 -52 q-85 0 -146 18 l0 108 q48 -14 122 -14 q119 0 119 73 q0 35 -35 50 q-35 15 -114 15 l-59 0 l0 84 l69 170 q-69 30 -101 93 q-32 63 -32 167 l0 654 l-174 0 l0 144 l174 0 l0 279 l172 0 l0 -279 l240 0 l0 -144 l-240 0 l0 -610 q0 -95 38 -138 q38 -43 122 -43 q37 0 80 4 l0 -145 q-57 -10 -101 -10 q-22 0 -56 2 Z" /><glyph glyph-name="Tcaron" unicode="&#x164;" d="M739 0 l-180 0 l0 1281 l-465 0 l0 162 l1110 0 l0 -162 l-465 0 l0 -1281 ZM567 1575 l-300 298 l202 0 l172 -177 l16 0 l172 177 l202 0 l-300 -298 l-164 0 Z" /><glyph glyph-name="tcaron" unicode="&#x165;" d="M539 1720 l170 0 l-50 -488 l-120 0 l0 488 ZM234 1357 l172 0 l0 -279 l240 0 l0 -144 l-240 0 l0 -610 q0 -95 38 -138 q38 -43 122 -43 q37 0 80 4 l0 -145 q-57 -10 -101 -10 q-167 0 -239 67 q-72 67 -72 221 l0 654 l-174 0 l0 144 l174 0 l0 279 Z" /><glyph glyph-name="Tbar" unicode="&#x166;" d="M1204 1281 l-465 0 l0 -488 l305 0 l0 -143 l-305 0 l0 -650 l-180 0 l0 650 l-305 0 l0 143 l305 0 l0 488 l-465 0 l0 162 l1110 0 l0 -162 Z" /><glyph glyph-name="tbar" unicode="&#x167;" d="M655 495 l-249 0 l0 -171 q0 -95 38 -138 q38 -43 122 -43 q37 0 80 4 l0 -145 q-57 -10 -101 -10 q-167 0 -239 67 q-72 67 -72 221 l0 215 l-178 0 l0 144 l178 0 l0 295 l-174 0 l0 144 l174 0 l0 279 l172 0 l0 -279 l240 0 l0 -144 l-240 0 l0 -295 l249 0 l0 -144 Z" /><glyph glyph-name="Utilde" unicode="&#x168;" d="M369 1443 l0 -935 q0 -167 104.5 -271.5 q104.5 -104.5 288.5 -104.5 q184 0 288.5 104.5 q104.5 104.5 104.5 271.5 l0 935 l180 0 l0 -947 q0 -235 -154.5 -382.5 q-154.5 -147.5 -418.5 -147.5 q-264 0 -418.5 147.5 q-154.5 147.5 -154.5 382.5 l0 947 l180 0 ZM907 1580 q-44 0 -82.5 16 q-38.5 16 -64.5 39 q-26 23 -48 46.5 q-22 23.5 -44.5 39.5 q-22.5 16 -44.5 16 q-53 0 -75.5 -36 q-22.5 -36 -22.5 -121 l-142 0 q0 136 61.5 213.5 q61.5 77.5 170.5 77.5 q44 0 82.5 -16 q38.5 -16 64.5 -39.5 q26 -23.5 48 -46.5 q22 -23 44.5 -39 q22.5 -16 44.5 -16 q53 0 75.5 36 q22.5 36 22.5 121 l142 0 q0 -136 -61.5 -213.5 q-61.5 -77.5 -170.5 -77.5 Z" /><glyph glyph-name="utilde" unicode="&#x169;" d="M1034 1078 l0 -1078 l-164 0 l0 169 l-16 0 q-41 -91 -126 -139.5 q-85 -48.5 -208 -48.5 q-180 0 -274 103 q-94 103 -94 296 l0 698 l172 0 l0 -656 q0 -147 58 -215.5 q58 -68.5 186 -68.5 q141 0 217.5 79.5 q76.5 79.5 76.5 222.5 l0 638 l172 0 ZM739 1231 q-44 0 -82.5 16 q-38.5 16 -64.5 39.5 q-26 23.5 -48 46.5 q-22 23 -44.5 39 q-22.5 16 -44.5 16 q-53 0 -75.5 -36 q-22.5 -36 -22.5 -121 l-142 0 q0 136 61.5 213.5 q61.5 77.5 170.5 77.5 q44 0 82.5 -16 q38.5 -16 64.5 -39 q26 -23 48 -46.5 q22 -23.5 44.5 -39.5 q22.5 -16 44.5 -16 q53 0 75.5 36 q22.5 36 22.5 121 l142 0 q0 -136 -61.5 -213.5 q-61.5 -77.5 -170.5 -77.5 Z" /><glyph glyph-name="Umacron" unicode="&#x16a;" d="M369 1443 l0 -935 q0 -167 104.5 -271.5 q104.5 -104.5 288.5 -104.5 q184 0 288.5 104.5 q104.5 104.5 104.5 271.5 l0 935 l180 0 l0 -947 q0 -235 -154.5 -382.5 q-154.5 -147.5 -418.5 -147.5 q-264 0 -418.5 147.5 q-154.5 147.5 -154.5 382.5 l0 947 l180 0 ZM1099 1756 l0 -136 l-674 0 l0 136 l674 0 Z" /><glyph glyph-name="umacron" unicode="&#x16b;" d="M1034 1078 l0 -1078 l-164 0 l0 169 l-16 0 q-41 -91 -126 -139.5 q-85 -48.5 -208 -48.5 q-180 0 -274 103 q-94 103 -94 296 l0 698 l172 0 l0 -656 q0 -147 58 -215.5 q58 -68.5 186 -68.5 q141 0 217.5 79.5 q76.5 79.5 76.5 222.5 l0 638 l172 0 ZM930 1422 l0 -136 l-674 0 l0 136 l674 0 Z" /><glyph glyph-name="Ubreve" unicode="&#x16c;" d="M369 1443 l0 -935 q0 -167 104.5 -271.5 q104.5 -104.5 288.5 -104.5 q184 0 288.5 104.5 q104.5 104.5 104.5 271.5 l0 935 l180 0 l0 -947 q0 -235 -154.5 -382.5 q-154.5 -147.5 -418.5 -147.5 q-264 0 -418.5 147.5 q-154.5 147.5 -154.5 382.5 l0 947 l180 0 ZM398 1873 l154 0 q0 -79 56.5 -126 q56.5 -47 153.5 -47 q97 0 153.5 47 q56.5 47 56.5 126 l154 0 q0 -135 -98 -216.5 q-98 -81.5 -266 -81.5 q-168 0 -266 81.5 q-98 81.5 -98 216.5 Z" /><glyph glyph-name="ubreve" unicode="&#x16d;" d="M1034 1078 l0 -1078 l-164 0 l0 169 l-16 0 q-41 -91 -126 -139.5 q-85 -48.5 -208 -48.5 q-180 0 -274 103 q-94 103 -94 296 l0 698 l172 0 l0 -656 q0 -147 58 -215.5 q58 -68.5 186 -68.5 q141 0 217.5 79.5 q76.5 79.5 76.5 222.5 l0 638 l172 0 ZM227 1556 l154 0 q0 -89 55.5 -144.5 q55.5 -55.5 154.5 -55.5 q99 0 154.5 55.5 q55.5 55.5 55.5 144.5 l154 0 q0 -145 -98 -236.5 q-98 -91.5 -266 -91.5 q-168 0 -266 91.5 q-98 91.5 -98 236.5 Z" /><glyph glyph-name="Uring" unicode="&#x16e;" d="M369 1443 l0 -935 q0 -167 104.5 -271.5 q104.5 -104.5 288.5 -104.5 q184 0 288.5 104.5 q104.5 104.5 104.5 271.5 l0 935 l180 0 l0 -947 q0 -235 -154.5 -382.5 q-154.5 -147.5 -418.5 -147.5 q-264 0 -418.5 147.5 q-154.5 147.5 -154.5 382.5 l0 947 l180 0 ZM903 1608 q-58 -57 -141 -57 q-83 0 -141 57 q-58 57 -58 140 q0 83 58 140 q58 57 141 57 q83 0 141 -57 q58 -57 58 -140 q0 -83 -58 -140 ZM686.5 1673 q29.5 -30 75.5 -30 q46 0 75.5 30 q29.5 30 29.5 75 q0 46 -29.5 75.5 q-29.5 29.5 -75.5 29.5 q-46 0 -75.5 -29.5 q-29.5 -29.5 -29.5 -75.5 q0 -45 29.5 -75 Z" /><glyph glyph-name="uring" unicode="&#x16f;" d="M1034 1078 l0 -1078 l-164 0 l0 169 l-16 0 q-41 -91 -126 -139.5 q-85 -48.5 -208 -48.5 q-180 0 -274 103 q-94 103 -94 296 l0 698 l172 0 l0 -656 q0 -147 58 -215.5 q58 -68.5 186 -68.5 q141 0 217.5 79.5 q76.5 79.5 76.5 222.5 l0 638 l172 0 ZM757 1294.5 q-68 -66.5 -164 -66.5 q-96 0 -164 66.5 q-68 66.5 -68 162.5 q0 96 68 162.5 q68 66.5 164 66.5 q96 0 164 -66.5 q68 -66.5 68 -162.5 q0 -96 -68 -162.5 ZM506 1369 q35 -35 87 -35 q52 0 87 35 q35 35 35 88 q0 53 -35 88 q-35 35 -87 35 q-52 0 -87 -35 q-35 -35 -35 -88 q0 -53 35 -88 Z" /><glyph glyph-name="Uhungarumlaut" unicode="&#x170;" d="M369 1443 l0 -935 q0 -167 104.5 -271.5 q104.5 -104.5 288.5 -104.5 q184 0 288.5 104.5 q104.5 104.5 104.5 271.5 l0 935 l180 0 l0 -947 q0 -235 -154.5 -382.5 q-154.5 -147.5 -418.5 -147.5 q-264 0 -418.5 147.5 q-154.5 147.5 -154.5 382.5 l0 947 l180 0 ZM1016 1575 l-204 0 l310 298 l226 0 l-332 -298 ZM602 1575 l-204 0 l310 298 l226 0 l-332 -298 Z" /><glyph glyph-name="uhungarumlaut" unicode="&#x171;" d="M1034 1078 l0 -1078 l-164 0 l0 169 l-16 0 q-41 -91 -126 -139.5 q-85 -48.5 -208 -48.5 q-180 0 -274 103 q-94 103 -94 296 l0 698 l172 0 l0 -656 q0 -147 58 -215.5 q58 -68.5 186 -68.5 q141 0 217.5 79.5 q76.5 79.5 76.5 222.5 l0 638 l172 0 ZM658 1263 l252 338 l210 0 l-280 -338 l-182 0 ZM258 1263 l252 338 l210 0 l-280 -338 l-182 0 Z" /><glyph glyph-name="Uogonek" unicode="&#x172;" d="M1023 -432 q-109 0 -176 58.5 q-67 58.5 -67 145.5 q0 123 131 208 l0 16 q-21 -13 -65 -21.5 q-44 -8.5 -84 -8.5 q-259 0 -416 145 q-157 145 -157 385 l0 947 l180 0 l0 -935 q0 -172 107 -274 q107 -102 286 -102 q179 0 286 102 q107 102 107 274 l0 935 l180 0 l0 -947 q0 -136 -58.5 -247.5 q-58.5 -111.5 -194.5 -234.5 q-133 -118 -133 -204 q0 -46 33 -72 q33 -26 79 -26 q42 0 66 6 l0 -134 q-46 -16 -104 -16 Z" /><glyph glyph-name="uogonek" unicode="&#x173;" d="M1026 -416 q-45 -16 -104 -16 q-106 0 -174.5 57.5 q-68.5 57.5 -68.5 146.5 q0 81 54 145.5 q54 64.5 137 94.5 l0 157 l-16 0 q-41 -91 -126 -139.5 q-85 -48.5 -208 -48.5 q-180 0 -274 103 q-94 103 -94 296 l0 698 l172 0 l0 -656 q0 -147 58 -215.5 q58 -68.5 186 -68.5 q141 0 217.5 79.5 q76.5 79.5 76.5 222.5 l0 638 l172 0 l0 -1078 l-12 -5 q-81 -33 -127.5 -82 q-46.5 -49 -46.5 -103 q0 -43 31.5 -70.5 q31.5 -27.5 80.5 -27.5 q44 0 66 6 l0 -134 Z" /><glyph glyph-name="Wcircumflex" unicode="&#x174;" d="M985 1139 l-332 -1139 l-170 0 l-393 1443 l188 0 l287 -1173 l12 0 l323 1173 l182 0 l323 -1173 l12 0 l287 1173 l188 0 l-393 -1443 l-170 0 l-332 1139 l-12 0 ZM909 1873 l164 0 l300 -298 l-202 0 l-172 177 l-16 0 l-172 -177 l-202 0 l300 298 Z" /><glyph glyph-name="wcircumflex" unicode="&#x175;" d="M1518 1078 l-302 -1078 l-175 0 l-241 834 l-16 0 l-240 -834 l-174 0 l-302 1078 l174 0 l212 -862 l16 0 l241 862 l165 0 l241 -862 l16 0 l212 862 l173 0 ZM894 1568 l282 -340 l-198 0 l-177 227 l-16 0 l-177 -227 l-198 0 l282 340 l202 0 Z" /><glyph glyph-name="Ycircumflex" unicode="&#x176;" d="M762 0 l-180 0 l0 621 l-512 822 l205 0 l389 -641 l16 0 l389 641 l205 0 l-512 -822 l0 -621 ZM590 1873 l164 0 l300 -298 l-202 0 l-172 177 l-16 0 l-172 -177 l-202 0 l300 298 Z" /><glyph glyph-name="ycircumflex" unicode="&#x177;" d="M254 -390 q-41 0 -77 6 l0 147 q26 -5 72 -5 q75 0 119.5 40 q44.5 40 78.5 137 l20 64 l-399 1079 l186 0 l296 -887 l16 0 l295 887 l183 0 l-421 -1144 q-69 -187 -147 -255.5 q-78 -68.5 -222 -68.5 ZM652 1568 l282 -340 l-198 0 l-177 227 l-16 0 l-177 -227 l-198 0 l282 340 l202 0 Z" /><glyph glyph-name="Ydieresis" unicode="&#x178;" d="M762 0 l-180 0 l0 621 l-512 822 l205 0 l389 -641 l16 0 l389 641 l205 0 l-512 -822 l0 -621 ZM555.5 1610.5 q-35.5 -35.5 -85.5 -35.5 q-50 0 -85.5 35.5 q-35.5 35.5 -35.5 85.5 q0 50 35.5 85.5 q35.5 35.5 85.5 35.5 q50 0 85.5 -35.5 q35.5 -35.5 35.5 -85.5 q0 -50 -35.5 -85.5 ZM959.5 1610.5 q-35.5 -35.5 -85.5 -35.5 q-50 0 -85.5 35.5 q-35.5 35.5 -35.5 85.5 q0 50 35.5 85.5 q35.5 35.5 85.5 35.5 q50 0 85.5 -35.5 q35.5 -35.5 35.5 -85.5 q0 -50 -35.5 -85.5 Z" /><glyph glyph-name="Zacute" unicode="&#x179;" d="M144 0 l0 128 l817 1137 l0 16 l-789 0 l0 162 l1022 0 l0 -128 l-813 -1137 l0 -16 l830 0 l0 -162 l-1067 0 ZM776 1575 l-204 0 l310 298 l226 0 l-332 -298 Z" /><glyph glyph-name="zacute" unicode="&#x17a;" d="M137 0 l0 126 l622 792 l0 16 l-621 0 l0 144 l826 0 l0 -129 l-619 -789 l0 -16 l622 0 l0 -144 l-830 0 ZM625 1263 l-194 0 l252 338 l220 0 l-278 -338 Z" /><glyph glyph-name="Zdotaccent" unicode="&#x17b;" d="M144 0 l0 128 l817 1137 l0 16 l-789 0 l0 162 l1022 0 l0 -128 l-813 -1137 l0 -16 l830 0 l0 -162 l-1067 0 ZM763.5 1610.5 q-35.5 -35.5 -85.5 -35.5 q-50 0 -85.5 35.5 q-35.5 35.5 -35.5 85.5 q0 50 35.5 85.5 q35.5 35.5 85.5 35.5 q50 0 85.5 -35.5 q35.5 -35.5 35.5 -85.5 q0 -50 -35.5 -85.5 Z" /><glyph glyph-name="zdotaccent" unicode="&#x17c;" d="M137 0 l0 126 l622 792 l0 16 l-621 0 l0 144 l826 0 l0 -129 l-619 -789 l0 -16 l622 0 l0 -144 l-830 0 ZM635.5 1324.5 q-37.5 -37.5 -90.5 -37.5 q-53 0 -90.5 37.5 q-37.5 37.5 -37.5 90.5 q0 52 37.5 89.5 q37.5 37.5 90.5 37.5 q53 0 90.5 -37.5 q37.5 -37.5 37.5 -89.5 q0 -53 -37.5 -90.5 Z" /><glyph glyph-name="Zcaron" unicode="&#x17d;" d="M144 0 l0 128 l817 1137 l0 16 l-789 0 l0 162 l1022 0 l0 -128 l-813 -1137 l0 -16 l830 0 l0 -162 l-1067 0 ZM596 1575 l-300 298 l202 0 l172 -177 l16 0 l172 177 l202 0 l-300 -298 l-164 0 Z" /><glyph glyph-name="zcaron" unicode="&#x17e;" d="M137 0 l0 126 l622 792 l0 16 l-621 0 l0 144 l826 0 l0 -129 l-619 -789 l0 -16 l622 0 l0 -144 l-830 0 ZM646 1228 l-202 0 l-282 340 l198 0 l177 -227 l16 0 l177 227 l198 0 l-282 -340 Z" /><glyph glyph-name="uni04D8" unicode="&#x18f;&#x4d8;" d="M1194.5 173.5 q-173.5 -207.5 -456.5 -207.5 q-283 0 -449.5 191.5 q-166.5 191.5 -170.5 521.5 l0 79 l1057 0 l0 27 q2 232 -127 379 q-129 147 -334 147 q-284 0 -389 -232 l-185 0 q65 188 217.5 293 q152.5 105 360.5 105 q299 0 474.5 -204.5 q175.5 -204.5 175.5 -552.5 q0 -339 -173.5 -546.5 ZM742 132 q174 0 290 126.5 q116 126.5 139 340.5 l-855 0 q17 -220 129.5 -343.5 q112.5 -123.5 296.5 -123.5 Z" /><glyph glyph-name="florin" unicode="&#x192;" d="M1243 1446 l0 -157 q-72 22 -190 22 q-224 0 -256 -221 l-31 -216 l369 0 l0 -144 l-390 0 l-58 -408 q-26 -180 -123 -263 q-97 -83 -269 -83 q-110 0 -218 27 l0 167 q99 -35 202 -35 q102 0 161.5 47 q59.5 47 74.5 153 l57 395 l-336 0 l0 144 l356 0 l33 227 q26 177 130.5 271.5 q104.5 94.5 275.5 94.5 q131 0 212 -21 Z" /><glyph glyph-name="Ohorn" unicode="&#x1a0;" d="M791 -34 q-309 0 -486 204 q-177 204 -177 552 q0 348 178.5 551.5 q178.5 203.5 484.5 203.5 q74 0 207.5 -20 q133.5 -20 208.5 -20 q62 0 85.5 21 q23.5 21 23.5 72 l0 140 l159 0 l0 -192 q0 -79 -52.5 -125 q-52.5 -46 -129.5 -46 l-59 0 l0 -12 q97 -67 157 -226.5 q60 -159.5 60 -346.5 q0 -348 -176.5 -552 q-176.5 -204 -483.5 -204 ZM791 132 q221 0 348 160 q127 160 127 430 q0 272 -127 430.5 q-127 158.5 -348 158.5 q-220 0 -349 -159 q-129 -159 -129 -430 q0 -271 127.5 -430.5 q127.5 -159.5 350.5 -159.5 Z" /><glyph glyph-name="ohorn" unicode="&#x1a1;" d="M369.5 241.5 q83.5 -105.5 235.5 -105.5 q152 0 235.5 105.5 q83.5 105.5 83.5 297.5 q0 193 -83.5 298 q-83.5 105 -235.5 105 q-152 0 -235.5 -105 q-83.5 -105 -83.5 -298 q0 -192 83.5 -297.5 ZM1102 539 q0 -259 -133 -408.5 q-133 -149.5 -364 -149.5 q-231 0 -364 149.5 q-133 149.5 -133 408.5 q0 259 133 408.5 q133 149.5 364 149.5 q66 0 143.5 -12.5 q77.5 -12.5 129.5 -12.5 q63 0 86 20.5 q23 20.5 23 72.5 l0 137 l159 0 l0 -189 q0 -75 -43.5 -117.5 q-43.5 -42.5 -100.5 -42.5 l-56 0 l0 -7 q71 -50 113.5 -157 q42.5 -107 42.5 -250 Z" /><glyph glyph-name="Uhorn" unicode="&#x1af;" d="M1178 111 q-157 -145 -416 -145 q-259 0 -416 145 q-157 145 -157 385 l0 947 l180 0 l0 -935 q0 -172 107 -274 q107 -102 286 -102 q179 0 286 102 q107 102 107 274 l0 935 l182 0 q47 0 69 21.5 q22 21.5 22 66.5 l0 159 l159 0 l0 -189 q0 -90 -55 -138 q-55 -48 -147 -48 l-50 0 l0 -819 q0 -240 -157 -385 Z" /><glyph glyph-name="uhorn" unicode="&#x1b0;" d="M854 169 q-41 -91 -126 -139.5 q-85 -48.5 -208 -48.5 q-180 0 -274 103 q-94 103 -94 296 l0 698 l172 0 l0 -656 q0 -147 58 -215.5 q58 -68.5 186 -68.5 q141 0 217.5 79.5 q76.5 79.5 76.5 222.5 l0 638 l144 0 q47 0 69 21.5 q22 21.5 22 66.5 l0 152 l159 0 l0 -182 q0 -90 -55 -138 q-55 -48 -147 -48 l-20 0 l0 -950 l-164 0 l0 169 l-16 0 Z" /><glyph glyph-name="uni01C4" unicode="&#x1c4;" d="M184 1443 l495 0 q321 0 501 -190.5 q180 -190.5 180 -530.5 q0 -341 -179.5 -531.5 q-179.5 -190.5 -501.5 -190.5 l-495 0 l0 1443 ZM364 1281 l0 -1119 l303 0 q241 0 375 147 q134 147 134 411 q0 265 -134.5 413 q-134.5 148 -374.5 148 l-303 0 ZM1631 0 l0 128 l817 1137 l0 16 l-789 0 l0 162 l1022 0 l0 -128 l-813 -1137 l0 -16 l830 0 l0 -162 l-1067 0 ZM2083 1575 l-300 298 l202 0 l172 -177 l16 0 l172 177 l202 0 l-300 -298 l-164 0 Z" /><glyph glyph-name="uni01C5" unicode="&#x1c5;" d="M184 1443 l495 0 q321 0 501 -190.5 q180 -190.5 180 -530.5 q0 -341 -179.5 -531.5 q-179.5 -190.5 -501.5 -190.5 l-495 0 l0 1443 ZM364 1281 l0 -1119 l303 0 q241 0 375 147 q134 147 134 411 q0 265 -134.5 413 q-134.5 148 -374.5 148 l-303 0 ZM1624 0 l0 126 l622 792 l0 16 l-621 0 l0 144 l826 0 l0 -129 l-619 -789 l0 -16 l622 0 l0 -144 l-830 0 ZM2133 1228 l-202 0 l-282 340 l198 0 l177 -227 l16 0 l177 227 l198 0 l-282 -340 Z" /><glyph glyph-name="uni01C6" unicode="&#x1c6;" d="M561 -19 q-207 0 -330 152 q-123 152 -123 406 q0 253 123.5 405.5 q123.5 152.5 329.5 152.5 q113 0 202.5 -50.5 q89.5 -50.5 135.5 -138.5 l15 0 l0 598 l172 0 l0 -1506 l-164 0 l0 172 l-16 0 q-51 -90 -142 -140.5 q-91 -50.5 -203 -50.5 ZM601 942 q-147 0 -231 -107.5 q-84 -107.5 -84 -295.5 q0 -189 83.5 -296 q83.5 -107 231.5 -107 q147 0 232 108 q85 108 85 295 q0 185 -85.5 294 q-85.5 109 -231.5 109 ZM1395 0 l0 126 l622 792 l0 16 l-621 0 l0 144 l826 0 l0 -129 l-619 -789 l0 -16 l622 0 l0 -144 l-830 0 ZM1904 1228 l-202 0 l-282 340 l198 0 l177 -227 l16 0 l177 227 l198 0 l-282 -340 Z" /><glyph glyph-name="uni01C7" unicode="&#x1c7;" d="M1060 162 l0 -162 l-876 0 l0 1443 l180 0 l0 -1281 l696 0 ZM1249 337 l179 0 q3 -91 67 -148 q64 -57 165 -57 q116 0 178.5 69.5 q62.5 69.5 62.5 201.5 l0 1040 l180 0 l0 -1041 q0 -206 -112 -321 q-112 -115 -308 -115 q-182 0 -297 103 q-115 103 -115 268 Z" /><glyph glyph-name="uni01C8" unicode="&#x1c8;" d="M1060 162 l0 -162 l-876 0 l0 1443 l180 0 l0 -1281 l696 0 ZM1501 1078 l0 -1131 q0 -166 -80 -241.5 q-80 -75.5 -250 -75.5 l-30 0 l0 147 l26 0 q90 0 126 38 q36 38 36 129 l0 1134 l172 0 ZM1499.5 1332.5 q-35.5 -35.5 -84.5 -35.5 q-49 0 -84.5 35.5 q-35.5 35.5 -35.5 84.5 q0 49 35.5 84.5 q35.5 35.5 84.5 35.5 q49 0 84.5 -35.5 q35.5 -35.5 35.5 -84.5 q0 -49 -35.5 -84.5 Z" /><glyph glyph-name="uni01C9" unicode="&#x1c9;" d="M172 0 l0 1506 l172 0 l0 -1506 l-172 0 ZM854 1078 l0 -1131 q0 -166 -80 -241.5 q-80 -75.5 -250 -75.5 l-30 0 l0 147 l26 0 q90 0 126 38 q36 38 36 129 l0 1134 l172 0 ZM853 1332.5 q-35 -35.5 -85 -35.5 q-50 0 -85 35.5 q-35 35.5 -35 84.5 q0 49 35 84.5 q35 35.5 85 35.5 q50 0 85 -35.5 q35 -35.5 35 -84.5 q0 -49 -35 -84.5 Z" /><glyph glyph-name="uni01CA" unicode="&#x1ca;" d="M362 0 l-178 0 l0 1443 l175 0 l783 -1123 l16 0 l0 1123 l178 0 l0 -1443 l-175 0 l-783 1119 l-16 0 l0 -1119 ZM1606 337 l179 0 q3 -91 67 -148 q64 -57 165 -57 q116 0 178.5 69.5 q62.5 69.5 62.5 201.5 l0 1040 l180 0 l0 -1041 q0 -206 -112 -321 q-112 -115 -308 -115 q-182 0 -297 103 q-115 103 -115 268 Z" /><glyph glyph-name="uni01CB" unicode="&#x1cb;" d="M362 0 l-178 0 l0 1443 l175 0 l783 -1123 l16 0 l0 1123 l178 0 l0 -1443 l-175 0 l-783 1119 l-16 0 l0 -1119 ZM1858 1078 l0 -1131 q0 -166 -80 -241.5 q-80 -75.5 -250 -75.5 l-30 0 l0 147 l26 0 q90 0 126 38 q36 38 36 129 l0 1134 l172 0 ZM1857 1332.5 q-35 -35.5 -85 -35.5 q-50 0 -85 35.5 q-35 35.5 -35 84.5 q0 49 35 84.5 q35 35.5 85 35.5 q50 0 85 -35.5 q35 -35.5 35 -84.5 q0 -49 -35 -84.5 Z" /><glyph glyph-name="uni01CC" unicode="&#x1cc;" d="M162 0 l0 1078 l164 0 l0 -170 l16 0 q86 189 324 189 q181 0 279 -103.5 q98 -103.5 98 -295.5 l0 -698 l-172 0 l0 656 q0 145 -62.5 215.5 q-62.5 70.5 -191.5 70.5 q-130 0 -206.5 -81.5 q-76.5 -81.5 -76.5 -222.5 l0 -638 l-172 0 ZM1533 1078 l0 -1131 q0 -166 -80 -241.5 q-80 -75.5 -250 -75.5 l-30 0 l0 147 l26 0 q90 0 126 38 q36 38 36 129 l0 1134 l172 0 ZM1531.5 1332.5 q-35.5 -35.5 -84.5 -35.5 q-49 0 -84.5 35.5 q-35.5 35.5 -35.5 84.5 q0 49 35.5 84.5 q35.5 35.5 84.5 35.5 q49 0 84.5 -35.5 q35.5 -35.5 35.5 -84.5 q0 -49 -35.5 -84.5 Z" /><glyph glyph-name="Acaron" unicode="&#x1cd;" d="M1122 0 l-145 413 l-574 0 l-145 -413 l-189 0 l532 1443 l178 0 l532 -1443 l-189 0 ZM682 1210 l-226 -644 l468 0 l-226 644 l-16 0 ZM608 1575 l-300 298 l202 0 l172 -177 l16 0 l172 177 l202 0 l-300 -298 l-164 0 Z" /><glyph glyph-name="acaron" unicode="&#x1ce;" d="M494 132 q133 0 220.5 77 q87.5 77 87.5 193 l0 99 l-290 -19 q-122 -8 -179 -51 q-57 -43 -57 -125 q0 -81 61 -127.5 q61 -46.5 157 -46.5 ZM462 -19 q-159 0 -261.5 87.5 q-102.5 87.5 -102.5 233.5 q0 144 102 226 q102 82 291 93 l311 19 l0 98 q0 100 -62 153 q-62 53 -182 53 q-97 0 -161 -35 q-64 -35 -82 -99 l-174 0 q17 129 133.5 208 q116.5 79 289.5 79 q196 0 303 -95 q107 -95 107 -264 l0 -738 l-164 0 l0 159 l-16 0 q-52 -86 -138 -132 q-86 -46 -194 -46 ZM665 1228 l-202 0 l-282 340 l198 0 l177 -227 l16 0 l177 227 l198 0 l-282 -340 Z" /><glyph glyph-name="Icaron" unicode="&#x1cf;" d="M364 0 l-180 0 l0 1443 l180 0 l0 -1443 ZM192 1575 l-300 298 l202 0 l172 -177 l16 0 l172 177 l202 0 l-300 -298 l-164 0 Z" /><glyph glyph-name="icaron" unicode="&#x1d0;" d="M166 0 l0 1078 l172 0 l0 -1078 l-172 0 ZM353 1228 l-202 0 l-282 340 l198 0 l177 -227 l16 0 l177 227 l198 0 l-282 -340 Z" /><glyph glyph-name="Ocaron" unicode="&#x1d1;" d="M791 1477 q307 0 483.5 -203.5 q176.5 -203.5 176.5 -551.5 q0 -348 -176.5 -552 q-176.5 -204 -483.5 -204 q-309 0 -486 204 q-177 204 -177 552 q0 348 178.5 551.5 q178.5 203.5 484.5 203.5 ZM791 1311 q-220 0 -349 -159 q-129 -159 -129 -430 q0 -271 127.5 -430.5 q127.5 -159.5 350.5 -159.5 q221 0 348 160 q127 160 127 430 q0 272 -127 430.5 q-127 158.5 -348 158.5 ZM709 1575 l-300 298 l202 0 l172 -177 l16 0 l172 177 l202 0 l-300 -298 l-164 0 Z" /><glyph glyph-name="ocaron" unicode="&#x1d2;" d="M968.5 130.5 q-133.5 -149.5 -363.5 -149.5 q-230 0 -363.5 149.5 q-133.5 149.5 -133.5 408.5 q0 260 133 409 q133 149 364 149 q231 0 364 -149 q133 -149 133 -409 q0 -259 -133.5 -408.5 ZM369 241.5 q83 -105.5 236 -105.5 q153 0 236 105.5 q83 105.5 83 297.5 q0 192 -83 297.5 q-83 105.5 -236 105.5 q-153 0 -236 -105.5 q-83 -105.5 -83 -297.5 q0 -192 83 -297.5 ZM706 1228 l-202 0 l-282 340 l198 0 l177 -227 l16 0 l177 227 l198 0 l-282 -340 Z" /><glyph glyph-name="Ucaron" unicode="&#x1d3;" d="M369 1443 l0 -935 q0 -167 104.5 -271.5 q104.5 -104.5 288.5 -104.5 q184 0 288.5 104.5 q104.5 104.5 104.5 271.5 l0 935 l180 0 l0 -947 q0 -235 -154.5 -382.5 q-154.5 -147.5 -418.5 -147.5 q-264 0 -418.5 147.5 q-154.5 147.5 -154.5 382.5 l0 947 l180 0 ZM680 1575 l-300 298 l202 0 l172 -177 l16 0 l172 177 l202 0 l-300 -298 l-164 0 Z" /><glyph glyph-name="ucaron" unicode="&#x1d4;" d="M1034 1078 l0 -1078 l-164 0 l0 169 l-16 0 q-41 -91 -126 -139.5 q-85 -48.5 -208 -48.5 q-180 0 -274 103 q-94 103 -94 296 l0 698 l172 0 l0 -656 q0 -147 58 -215.5 q58 -68.5 186 -68.5 q141 0 217.5 79.5 q76.5 79.5 76.5 222.5 l0 638 l172 0 ZM694 1228 l-202 0 l-282 340 l198 0 l177 -227 l16 0 l177 227 l198 0 l-282 -340 Z" /><glyph glyph-name="Udieresismacron" unicode="&#x1d5;" d="M369 1443 l0 -935 q0 -167 104.5 -271.5 q104.5 -104.5 288.5 -104.5 q184 0 288.5 104.5 q104.5 104.5 104.5 271.5 l0 935 l180 0 l0 -947 q0 -235 -154.5 -382.5 q-154.5 -147.5 -418.5 -147.5 q-264 0 -418.5 147.5 q-154.5 147.5 -154.5 382.5 l0 947 l180 0 ZM477 1775 q34 34 83 34 q49 0 83 -34 q34 -34 34 -83 q0 -49 -34 -83 q-34 -34 -83 -34 q-49 0 -83 34 q-34 34 -34 83 q0 49 34 83 ZM425 2062 l674 0 l0 -130 l-674 0 l0 130 ZM881 1775 q34 34 83 34 q49 0 83 -34 q34 -34 34 -83 q0 -49 -34 -83 q-34 -34 -83 -34 q-49 0 -83 34 q-34 34 -34 83 q0 49 34 83 Z" /><glyph glyph-name="udieresismacron" unicode="&#x1d6;" d="M1034 1078 l0 -1078 l-164 0 l0 169 l-16 0 q-41 -91 -126 -139.5 q-85 -48.5 -208 -48.5 q-180 0 -274 103 q-94 103 -94 296 l0 698 l172 0 l0 -656 q0 -147 58 -215.5 q58 -68.5 186 -68.5 q141 0 217.5 79.5 q76.5 79.5 76.5 222.5 l0 638 l172 0 ZM474 1262 q-34 -34 -83 -34 q-49 0 -83 34 q-34 34 -34 83 q0 49 34 83 q34 34 83 34 q49 0 83 -34 q34 -34 34 -83 q0 -49 -34 -83 ZM878 1262 q-34 -34 -83 -34 q-49 0 -83 34 q-34 34 -34 83 q0 49 34 83 q34 34 83 34 q49 0 83 -34 q34 -34 34 -83 q0 -49 -34 -83 ZM930 1756 l0 -136 l-674 0 l0 136 l674 0 Z" /><glyph glyph-name="Udieresisacute" unicode="&#x1d7;" d="M369 1443 l0 -935 q0 -167 104.5 -271.5 q104.5 -104.5 288.5 -104.5 q184 0 288.5 104.5 q104.5 104.5 104.5 271.5 l0 935 l180 0 l0 -947 q0 -235 -154.5 -382.5 q-154.5 -147.5 -418.5 -147.5 q-264 0 -418.5 147.5 q-154.5 147.5 -154.5 382.5 l0 947 l180 0 ZM674 1873 l230 222 l227 0 l-281 -222 l-176 0 ZM645.5 1610.5 q-35.5 -35.5 -85.5 -35.5 q-50 0 -85.5 35.5 q-35.5 35.5 -35.5 85.5 q0 50 35.5 85.5 q35.5 35.5 85.5 35.5 q50 0 85.5 -35.5 q35.5 -35.5 35.5 -85.5 q0 -50 -35.5 -85.5 ZM1049.5 1610.5 q-35.5 -35.5 -85.5 -35.5 q-50 0 -85.5 35.5 q-35.5 35.5 -35.5 85.5 q0 50 35.5 85.5 q35.5 35.5 85.5 35.5 q50 0 85.5 -35.5 q35.5 -35.5 35.5 -85.5 q0 -50 -35.5 -85.5 Z" /><glyph glyph-name="udieresisacute" unicode="&#x1d8;" d="M1034 1078 l0 -1078 l-164 0 l0 169 l-16 0 q-41 -91 -126 -139.5 q-85 -48.5 -208 -48.5 q-180 0 -274 103 q-94 103 -94 296 l0 698 l172 0 l0 -656 q0 -147 58 -215.5 q58 -68.5 186 -68.5 q141 0 217.5 79.5 q76.5 79.5 76.5 222.5 l0 638 l172 0 ZM493 1575 l190 298 l198 0 l-218 -298 l-170 0 ZM476.5 1263.5 q-35.5 -35.5 -85.5 -35.5 q-50 0 -85.5 35.5 q-35.5 35.5 -35.5 85.5 q0 50 35.5 85.5 q35.5 35.5 85.5 35.5 q50 0 85.5 -35.5 q35.5 -35.5 35.5 -85.5 q0 -50 -35.5 -85.5 ZM880.5 1263.5 q-35.5 -35.5 -85.5 -35.5 q-50 0 -85.5 35.5 q-35.5 35.5 -35.5 85.5 q0 50 35.5 85.5 q35.5 35.5 85.5 35.5 q50 0 85.5 -35.5 q35.5 -35.5 35.5 -85.5 q0 -50 -35.5 -85.5 Z" /><glyph glyph-name="Udieresiscaron" unicode="&#x1d9;" d="M369 1443 l0 -935 q0 -167 104.5 -271.5 q104.5 -104.5 288.5 -104.5 q184 0 288.5 104.5 q104.5 104.5 104.5 271.5 l0 935 l180 0 l0 -947 q0 -235 -154.5 -382.5 q-154.5 -147.5 -418.5 -147.5 q-264 0 -418.5 147.5 q-154.5 147.5 -154.5 382.5 l0 947 l180 0 ZM664 1862 l-294 233 l222 0 l162 -135 l16 0 l162 135 l222 0 l-294 -233 l-196 0 ZM477 1775 q34 34 83 34 q49 0 83 -34 q34 -34 34 -83 q0 -49 -34 -83 q-34 -34 -83 -34 q-49 0 -83 34 q-34 34 -34 83 q0 49 34 83 ZM881 1775 q34 34 83 34 q49 0 83 -34 q34 -34 34 -83 q0 -49 -34 -83 q-34 -34 -83 -34 q-49 0 -83 34 q-34 34 -34 83 q0 49 34 83 Z" /><glyph glyph-name="udieresiscaron" unicode="&#x1da;" d="M1034 1078 l0 -1078 l-164 0 l0 169 l-16 0 q-41 -91 -126 -139.5 q-85 -48.5 -208 -48.5 q-180 0 -274 103 q-94 103 -94 296 l0 698 l172 0 l0 -656 q0 -147 58 -215.5 q58 -68.5 186 -68.5 q141 0 217.5 79.5 q76.5 79.5 76.5 222.5 l0 638 l172 0 ZM474 1262 q-34 -34 -83 -34 q-49 0 -83 34 q-34 34 -34 83 q0 49 34 83 q34 34 83 34 q49 0 83 -34 q34 -34 34 -83 q0 -49 -34 -83 ZM878 1262 q-34 -34 -83 -34 q-49 0 -83 34 q-34 34 -34 83 q0 49 34 83 q34 34 83 34 q49 0 83 -34 q34 -34 34 -83 q0 -49 -34 -83 ZM694 1575 l-202 0 l-282 320 l200 0 l175 -207 l16 0 l175 207 l200 0 l-282 -320 Z" /><glyph glyph-name="Udieresisgrave" unicode="&#x1db;" d="M369 1443 l0 -935 q0 -167 104.5 -271.5 q104.5 -104.5 288.5 -104.5 q184 0 288.5 104.5 q104.5 104.5 104.5 271.5 l0 935 l180 0 l0 -947 q0 -235 -154.5 -382.5 q-154.5 -147.5 -418.5 -147.5 q-264 0 -418.5 147.5 q-154.5 147.5 -154.5 382.5 l0 947 l180 0 ZM868 1873 l-176 0 l-281 222 l227 0 l230 -222 ZM645.5 1610.5 q-35.5 -35.5 -85.5 -35.5 q-50 0 -85.5 35.5 q-35.5 35.5 -35.5 85.5 q0 50 35.5 85.5 q35.5 35.5 85.5 35.5 q50 0 85.5 -35.5 q35.5 -35.5 35.5 -85.5 q0 -50 -35.5 -85.5 ZM1049.5 1610.5 q-35.5 -35.5 -85.5 -35.5 q-50 0 -85.5 35.5 q-35.5 35.5 -35.5 85.5 q0 50 35.5 85.5 q35.5 35.5 85.5 35.5 q50 0 85.5 -35.5 q35.5 -35.5 35.5 -85.5 q0 -50 -35.5 -85.5 Z" /><glyph glyph-name="udieresisgrave" unicode="&#x1dc;" d="M1034 1078 l0 -1078 l-164 0 l0 169 l-16 0 q-41 -91 -126 -139.5 q-85 -48.5 -208 -48.5 q-180 0 -274 103 q-94 103 -94 296 l0 698 l172 0 l0 -656 q0 -147 58 -215.5 q58 -68.5 186 -68.5 q141 0 217.5 79.5 q76.5 79.5 76.5 222.5 l0 638 l172 0 ZM693 1575 l-170 0 l-218 298 l198 0 l190 -298 ZM476.5 1263.5 q-35.5 -35.5 -85.5 -35.5 q-50 0 -85.5 35.5 q-35.5 35.5 -35.5 85.5 q0 50 35.5 85.5 q35.5 35.5 85.5 35.5 q50 0 85.5 -35.5 q35.5 -35.5 35.5 -85.5 q0 -50 -35.5 -85.5 ZM880.5 1263.5 q-35.5 -35.5 -85.5 -35.5 q-50 0 -85.5 35.5 q-35.5 35.5 -35.5 85.5 q0 50 35.5 85.5 q35.5 35.5 85.5 35.5 q50 0 85.5 -35.5 q35.5 -35.5 35.5 -85.5 q0 -50 -35.5 -85.5 Z" /><glyph glyph-name="uni04D9" unicode="&#x1dd;&#x259;&#x4d9;" d="M588 133 q129 0 212.5 87 q83.5 87 92.5 230 l-594 0 q2 -143 81.5 -230 q79.5 -87 207.5 -87 ZM304 799 l-172 0 q40 136 159 217 q119 81 291 81 q227 0 358.5 -150.5 q131.5 -150.5 131.5 -406.5 q0 -255 -132 -407 q-132 -152 -354 -152 q-218 0 -343 145 q-125 145 -125 397 l3 66 l772 0 l0 8 q0 158 -86 253 q-86 95 -225 95 q-203 0 -278 -146 Z" /><glyph glyph-name="Adieresismacron" unicode="&#x1de;" d="M1122 0 l-145 413 l-574 0 l-145 -413 l-189 0 l532 1443 l178 0 l532 -1443 l-189 0 ZM682 1210 l-226 -644 l468 0 l-226 644 l-16 0 ZM405 1775 q34 34 83 34 q49 0 83 -34 q34 -34 34 -83 q0 -49 -34 -83 q-34 -34 -83 -34 q-49 0 -83 34 q-34 34 -34 83 q0 49 34 83 ZM353 2062 l674 0 l0 -130 l-674 0 l0 130 ZM809 1775 q34 34 83 34 q49 0 83 -34 q34 -34 34 -83 q0 -49 -34 -83 q-34 -34 -83 -34 q-49 0 -83 34 q-34 34 -34 83 q0 49 34 83 Z" /><glyph glyph-name="adieresismacron" unicode="&#x1df;" d="M494 132 q133 0 220.5 77 q87.5 77 87.5 193 l0 99 l-290 -19 q-122 -8 -179 -51 q-57 -43 -57 -125 q0 -81 61 -127.5 q61 -46.5 157 -46.5 ZM462 -19 q-159 0 -261.5 87.5 q-102.5 87.5 -102.5 233.5 q0 144 102 226 q102 82 291 93 l311 19 l0 98 q0 100 -62 153 q-62 53 -182 53 q-97 0 -161 -35 q-64 -35 -82 -99 l-174 0 q17 129 133.5 208 q116.5 79 289.5 79 q196 0 303 -95 q107 -95 107 -264 l0 -738 l-164 0 l0 159 l-16 0 q-52 -86 -138 -132 q-86 -46 -194 -46 ZM445 1262 q-34 -34 -83 -34 q-49 0 -83 34 q-34 34 -34 83 q0 49 34 83 q34 34 83 34 q49 0 83 -34 q34 -34 34 -83 q0 -49 -34 -83 ZM849 1262 q-34 -34 -83 -34 q-49 0 -83 34 q-34 34 -34 83 q0 49 34 83 q34 34 83 34 q49 0 83 -34 q34 -34 34 -83 q0 -49 -34 -83 ZM901 1756 l0 -136 l-674 0 l0 136 l674 0 Z" /><glyph glyph-name="Adotmacron" unicode="&#x1e0;" d="M1122 0 l-145 413 l-574 0 l-145 -413 l-189 0 l532 1443 l178 0 l532 -1443 l-189 0 ZM682 1210 l-226 -644 l468 0 l-226 644 l-16 0 ZM774.5 1611.5 q-34.5 -34.5 -84.5 -34.5 q-50 0 -84.5 34.5 q-34.5 34.5 -34.5 84.5 q0 50 34.5 84.5 q34.5 34.5 84.5 34.5 q50 0 84.5 -34.5 q34.5 -34.5 34.5 -84.5 q0 -50 -34.5 -84.5 ZM1027 2062 l0 -130 l-674 0 l0 130 l674 0 Z" /><glyph glyph-name="adotmacron" unicode="&#x1e1;" d="M494 132 q133 0 220.5 77 q87.5 77 87.5 193 l0 99 l-290 -19 q-122 -8 -179 -51 q-57 -43 -57 -125 q0 -81 61 -127.5 q61 -46.5 157 -46.5 ZM462 -19 q-159 0 -261.5 87.5 q-102.5 87.5 -102.5 233.5 q0 144 102 226 q102 82 291 93 l311 19 l0 98 q0 100 -62 153 q-62 53 -182 53 q-97 0 -161 -35 q-64 -35 -82 -99 l-174 0 q17 129 133.5 208 q116.5 79 289.5 79 q196 0 303 -95 q107 -95 107 -264 l0 -738 l-164 0 l0 159 l-16 0 q-52 -86 -138 -132 q-86 -46 -194 -46 ZM648.5 1262.5 q-34.5 -34.5 -84.5 -34.5 q-50 0 -84.5 34.5 q-34.5 34.5 -34.5 84.5 q0 50 34.5 84.5 q34.5 34.5 84.5 34.5 q50 0 84.5 -34.5 q34.5 -34.5 34.5 -84.5 q0 -50 -34.5 -84.5 ZM901 1756 l0 -136 l-674 0 l0 136 l674 0 Z" /><glyph glyph-name="AEmacron" unicode="&#x1e2;" d="M839 1292 l-310 -680 l457 0 l0 680 l-147 0 ZM986 0 l0 459 l-527 0 l-209 -459 l-181 0 l651 1443 l1104 0 l0 -162 l-658 0 l0 -473 l621 0 l0 -160 l-621 0 l0 -486 l658 0 l0 -162 l-838 0 ZM1776 1756 l0 -136 l-674 0 l0 136 l674 0 Z" /><glyph glyph-name="aemacron" unicode="&#x1e3;" d="M1287 -19 q-129 0 -236 65 q-107 65 -150 166 l-16 0 q-53 -109 -158.5 -170 q-105.5 -61 -247.5 -61 q-171 0 -276 87 q-105 87 -105 234 q0 144 102 226 q102 82 291 93 l311 19 l0 98 q0 100 -62 153 q-62 53 -182 53 q-97 0 -161 -35 q-64 -35 -82 -99 l-174 0 q17 130 133.5 208.5 q116.5 78.5 289.5 78.5 q124 0 214.5 -50.5 q90.5 -50.5 133.5 -134.5 l16 0 q48 81 145.5 133 q97.5 52 211.5 52 q214 0 335 -140.5 q121 -140.5 121 -388.5 l0 -68 l-768 0 l0 -18 q7 -159 93 -253.5 q86 -94.5 225 -94.5 q100 0 164.5 35.5 q64.5 35.5 99.5 109.5 l172 0 q-41 -143 -155.5 -220.5 q-114.5 -77.5 -284.5 -77.5 ZM1276 946 q-130 0 -211.5 -82.5 q-81.5 -82.5 -91.5 -224.5 l587 0 q-3 135 -82.5 221 q-79.5 86 -201.5 86 ZM504 132 q128 0 213 80.5 q85 80.5 85 197.5 l0 91 l-290 -19 q-122 -8 -179 -51 q-57 -43 -57 -125 q0 -81 62.5 -127.5 q62.5 -46.5 165.5 -46.5 ZM1276 1422 l0 -136 l-674 0 l0 136 l674 0 Z" /><glyph glyph-name="Gcaron" unicode="&#x1e6;" d="M1395 558 q0 -267 -168 -429.5 q-168 -162.5 -445 -162.5 q-299 0 -476.5 205 q-177.5 205 -177.5 551 q0 342 179 548.5 q179 206.5 475 206.5 q240 0 402.5 -125 q162.5 -125 201.5 -339 l-183 0 q-47 146 -154 222 q-107 76 -267 76 q-214 0 -341.5 -160 q-127.5 -160 -127.5 -429 q0 -273 126.5 -431.5 q126.5 -158.5 343.5 -158.5 q194 0 313.5 113 q119.5 113 119.5 296 l0 35 l-406 0 l0 158 l585 0 l0 -176 ZM700 1575 l-300 298 l202 0 l172 -177 l16 0 l172 177 l202 0 l-300 -298 l-164 0 Z" /><glyph glyph-name="gcaron" unicode="&#x1e7;" d="M598 168 q149 0 234.5 104.5 q85.5 104.5 85.5 282.5 q0 177 -86 282 q-86 105 -234 105 q-148 0 -230 -104 q-82 -104 -82 -283 q0 -179 82 -283 q82 -104 230 -104 ZM606 -414 q-193 0 -312.5 80 q-119.5 80 -139.5 215 l182 0 q14 -67 85 -106 q71 -39 185 -39 q145 0 226.5 67.5 q81.5 67.5 81.5 186.5 l0 212 l-16 0 q-51 -89 -139 -137.5 q-88 -48.5 -199 -48.5 q-208 0 -330 147.5 q-122 147.5 -122 391.5 q0 244 123 393 q123 149 329 149 q113 0 206 -51.5 q93 -51.5 140 -138.5 l16 0 l0 171 l164 0 l0 -1097 q0 -181 -130 -288 q-130 -107 -350 -107 ZM695 1228 l-202 0 l-282 340 l198 0 l177 -227 l16 0 l177 227 l198 0 l-282 -340 Z" /><glyph glyph-name="Kcaron" unicode="&#x1e8;" d="M364 0 l-180 0 l0 1443 l180 0 l0 -701 l16 0 l632 701 l226 0 l-577 -623 l630 -820 l-233 0 l-521 695 l-173 -191 l0 -504 ZM571 1575 l-300 298 l202 0 l172 -177 l16 0 l172 177 l202 0 l-300 -298 l-164 0 Z" /><glyph glyph-name="kcaron" unicode="&#x1e9;" d="M360 607 l468 471 l211 0 l-464 -462 l495 -616 l-219 0 l-404 505 l-103 -96 l0 -409 l-172 0 l0 1506 l172 0 l0 -899 l16 0 ZM176 1638 l-300 298 l202 0 l172 -177 l16 0 l172 177 l202 0 l-300 -298 l-164 0 Z" /><glyph glyph-name="Oogonek" unicode="&#x1ea;" d="M1058 -432 q-106 0 -174.5 57.5 q-68.5 57.5 -68.5 146.5 q0 123 131 208 l0 16 q-20 -13 -64.5 -21.5 q-44.5 -8.5 -90.5 -8.5 q-307 0 -485 203 q-178 203 -178 553 q0 348 178.5 551.5 q178.5 203.5 484.5 203.5 q305 0 482.5 -203 q177.5 -203 177.5 -552 q0 -217 -78.5 -383.5 q-78.5 -166.5 -255.5 -324.5 q-133 -118 -133 -204 q0 -43 31.5 -70.5 q31.5 -27.5 80.5 -27.5 q44 0 66 6 l0 -134 q-45 -16 -104 -16 ZM1138.5 1152.5 q-127.5 158.5 -347.5 158.5 q-220 0 -349 -159 q-129 -159 -129 -430 q0 -273 128.5 -431.5 q128.5 -158.5 349.5 -158.5 q219 0 347 159 q128 159 128 431 q0 272 -127.5 430.5 Z" /><glyph glyph-name="oogonek" unicode="&#x1eb;" d="M798 -432 q-109 0 -176 58.5 q-67 58.5 -67 145.5 q0 123 131 208 l0 16 q-26 -15 -81 -15 q-231 0 -364 149.5 q-133 149.5 -133 408.5 q0 259 133 408.5 q133 149.5 364 149.5 q231 0 364 -149.5 q133 -149.5 133 -408.5 q0 -158 -58.5 -287 q-58.5 -129 -186.5 -242 q-133 -119 -133 -200 q0 -46 33 -72 q33 -26 79 -26 q42 0 66 6 l0 -134 q-46 -16 -104 -16 ZM369.5 241.5 q83.5 -105.5 235.5 -105.5 q152 0 235.5 105.5 q83.5 105.5 83.5 297.5 q0 193 -83.5 298 q-83.5 105 -235.5 105 q-152 0 -235.5 -105 q-83.5 -105 -83.5 -298 q0 -192 83.5 -297.5 Z" /><glyph glyph-name="Oogonekmacron" unicode="&#x1ec;" d="M1058 -432 q-106 0 -174.5 57.5 q-68.5 57.5 -68.5 146.5 q0 123 131 208 l0 16 q-20 -13 -64.5 -21.5 q-44.5 -8.5 -90.5 -8.5 q-307 0 -485 203 q-178 203 -178 553 q0 348 178.5 551.5 q178.5 203.5 484.5 203.5 q305 0 482.5 -203 q177.5 -203 177.5 -552 q0 -217 -78.5 -383.5 q-78.5 -166.5 -255.5 -324.5 q-133 -118 -133 -204 q0 -43 31.5 -70.5 q31.5 -27.5 80.5 -27.5 q44 0 66 6 l0 -134 q-45 -16 -104 -16 ZM1138.5 1152.5 q-127.5 158.5 -347.5 158.5 q-220 0 -349 -159 q-129 -159 -129 -430 q0 -273 128.5 -431.5 q128.5 -158.5 349.5 -158.5 q219 0 347 159 q128 159 128 431 q0 272 -127.5 430.5 ZM1128 1756 l0 -136 l-674 0 l0 136 l674 0 Z" /><glyph glyph-name="oogonekmacron" unicode="&#x1ed;" d="M798 -432 q-109 0 -176 58.5 q-67 58.5 -67 145.5 q0 123 131 208 l0 16 q-26 -15 -81 -15 q-231 0 -364 149.5 q-133 149.5 -133 408.5 q0 259 133 408.5 q133 149.5 364 149.5 q231 0 364 -149.5 q133 -149.5 133 -408.5 q0 -158 -58.5 -287 q-58.5 -129 -186.5 -242 q-133 -119 -133 -200 q0 -46 33 -72 q33 -26 79 -26 q42 0 66 6 l0 -134 q-46 -16 -104 -16 ZM369.5 241.5 q83.5 -105.5 235.5 -105.5 q152 0 235.5 105.5 q83.5 105.5 83.5 297.5 q0 193 -83.5 298 q-83.5 105 -235.5 105 q-152 0 -235.5 -105 q-83.5 -105 -83.5 -298 q0 -192 83.5 -297.5 ZM942 1422 l0 -136 l-674 0 l0 136 l674 0 Z" /><glyph glyph-name="uni01F1" unicode="&#x1f1;" d="M184 1443 l495 0 q321 0 501 -190.5 q180 -190.5 180 -530.5 q0 -341 -179.5 -531.5 q-179.5 -190.5 -501.5 -190.5 l-495 0 l0 1443 ZM364 1281 l0 -1119 l303 0 q241 0 375 147 q134 147 134 411 q0 265 -134.5 413 q-134.5 148 -374.5 148 l-303 0 ZM1631 0 l0 128 l817 1137 l0 16 l-789 0 l0 162 l1022 0 l0 -128 l-813 -1137 l0 -16 l830 0 l0 -162 l-1067 0 Z" /><glyph glyph-name="uni01F2" unicode="&#x1f2;" d="M184 1443 l495 0 q321 0 501 -190.5 q180 -190.5 180 -530.5 q0 -341 -179.5 -531.5 q-179.5 -190.5 -501.5 -190.5 l-495 0 l0 1443 ZM364 1281 l0 -1119 l303 0 q241 0 375 147 q134 147 134 411 q0 265 -134.5 413 q-134.5 148 -374.5 148 l-303 0 ZM1624 0 l0 126 l622 792 l0 16 l-621 0 l0 144 l826 0 l0 -129 l-619 -789 l0 -16 l622 0 l0 -144 l-830 0 Z" /><glyph glyph-name="uni01F3" unicode="&#x1f3;" d="M561 -19 q-207 0 -330 152 q-123 152 -123 406 q0 253 123.5 405.5 q123.5 152.5 329.5 152.5 q113 0 202.5 -50.5 q89.5 -50.5 135.5 -138.5 l15 0 l0 598 l172 0 l0 -1506 l-164 0 l0 172 l-16 0 q-51 -90 -142 -140.5 q-91 -50.5 -203 -50.5 ZM601 942 q-147 0 -231 -107.5 q-84 -107.5 -84 -295.5 q0 -189 83.5 -296 q83.5 -107 231.5 -107 q147 0 232 108 q85 108 85 295 q0 185 -85.5 294 q-85.5 109 -231.5 109 ZM1395 0 l0 126 l622 792 l0 16 l-621 0 l0 144 l826 0 l0 -129 l-619 -789 l0 -16 l622 0 l0 -144 l-830 0 Z" /><glyph glyph-name="Gacute" unicode="&#x1f4;" d="M1395 558 q0 -267 -168 -429.5 q-168 -162.5 -445 -162.5 q-299 0 -476.5 205 q-177.5 205 -177.5 551 q0 342 179 548.5 q179 206.5 475 206.5 q240 0 402.5 -125 q162.5 -125 201.5 -339 l-183 0 q-47 146 -154 222 q-107 76 -267 76 q-214 0 -341.5 -160 q-127.5 -160 -127.5 -429 q0 -273 126.5 -431.5 q126.5 -158.5 343.5 -158.5 q194 0 313.5 113 q119.5 113 119.5 296 l0 35 l-406 0 l0 158 l585 0 l0 -176 ZM880 1575 l-204 0 l310 298 l226 0 l-332 -298 Z" /><glyph glyph-name="gacute" unicode="&#x1f5;" d="M598 168 q149 0 234.5 104.5 q85.5 104.5 85.5 282.5 q0 177 -86 282 q-86 105 -234 105 q-148 0 -230 -104 q-82 -104 -82 -283 q0 -179 82 -283 q82 -104 230 -104 ZM606 -414 q-193 0 -312.5 80 q-119.5 80 -139.5 215 l182 0 q14 -67 85 -106 q71 -39 185 -39 q145 0 226.5 67.5 q81.5 67.5 81.5 186.5 l0 212 l-16 0 q-51 -89 -139 -137.5 q-88 -48.5 -199 -48.5 q-208 0 -330 147.5 q-122 147.5 -122 391.5 q0 244 123 393 q123 149 329 149 q113 0 206 -51.5 q93 -51.5 140 -138.5 l16 0 l0 171 l164 0 l0 -1097 q0 -181 -130 -288 q-130 -107 -350 -107 ZM674 1263 l-194 0 l252 338 l220 0 l-278 -338 Z" /><glyph glyph-name="Ngrave" unicode="&#x1f8;" d="M362 0 l-178 0 l0 1443 l175 0 l783 -1123 l16 0 l0 1123 l178 0 l0 -1443 l-175 0 l-783 1119 l-16 0 l0 -1119 ZM654 1575 l-332 298 l226 0 l310 -298 l-204 0 Z" /><glyph glyph-name="ngrave" unicode="&#x1f9;" d="M162 0 l0 1078 l164 0 l0 -170 l16 0 q86 189 324 189 q181 0 279 -103.5 q98 -103.5 98 -295.5 l0 -698 l-172 0 l0 656 q0 145 -62.5 215.5 q-62.5 70.5 -191.5 70.5 q-130 0 -206.5 -81.5 q-76.5 -81.5 -76.5 -222.5 l0 -638 l-172 0 ZM725 1263 l-194 0 l-278 338 l220 0 l252 -338 Z" /><glyph glyph-name="Aringacute" unicode="&#x1fa;" d="M1122 0 l-145 413 l-574 0 l-145 -413 l-189 0 l532 1443 l178 0 l532 -1443 l-189 0 ZM682 1210 l-226 -644 l468 0 l-226 644 l-16 0 ZM833 1590.5 q-59 -57.5 -143 -57.5 q-84 0 -143 57.5 q-59 57.5 -59 140.5 q0 83 59 140.5 q59 57.5 143 57.5 q84 0 143 -57.5 q59 -57.5 59 -140.5 q0 -83 -59 -140.5 ZM618.5 1657.5 q28.5 -29.5 71.5 -29.5 q43 0 71.5 29.5 q28.5 29.5 28.5 72.5 q0 43 -28.5 72.5 q-28.5 29.5 -71.5 29.5 q-43 0 -71.5 -29.5 q-28.5 -29.5 -28.5 -72.5 q0 -43 28.5 -72.5 ZM760 2173 l187 0 l-174 -181 l-161 0 l148 181 Z" /><glyph glyph-name="aringacute" unicode="&#x1fb;" d="M494 132 q133 0 220.5 77 q87.5 77 87.5 193 l0 99 l-290 -19 q-122 -8 -179 -51 q-57 -43 -57 -125 q0 -81 61 -127.5 q61 -46.5 157 -46.5 ZM462 -19 q-159 0 -261.5 87.5 q-102.5 87.5 -102.5 233.5 q0 144 102 226 q102 82 291 93 l311 19 l0 98 q0 100 -62 153 q-62 53 -182 53 q-97 0 -161 -35 q-64 -35 -82 -99 l-174 0 q17 129 133.5 208 q116.5 79 289.5 79 q196 0 303 -95 q107 -95 107 -264 l0 -738 l-164 0 l0 159 l-16 0 q-52 -86 -138 -132 q-86 -46 -194 -46 ZM707 1258 q-59 -58 -143 -58 q-84 0 -143 58 q-59 58 -59 140 q0 82 59 140 q59 58 143 58 q84 0 143 -58 q59 -58 59 -140 q0 -82 -59 -140 ZM493 1469.5 q-29 -29.5 -29 -72.5 q0 -43 29 -72.5 q29 -29.5 71 -29.5 q42 0 71 29.5 q29 29.5 29 72.5 q0 43 -29 72.5 q-29 29.5 -71 29.5 q-42 0 -71 -29.5 ZM479 1683 l166 226 l199 0 l-194 -226 l-171 0 Z" /><glyph glyph-name="AEacute" unicode="&#x1fc;" d="M839 1292 l-310 -680 l457 0 l0 680 l-147 0 ZM986 0 l0 459 l-527 0 l-209 -459 l-181 0 l651 1443 l1104 0 l0 -162 l-658 0 l0 -473 l621 0 l0 -160 l-621 0 l0 -486 l658 0 l0 -162 l-838 0 ZM1537 1575 l-204 0 l310 298 l226 0 l-332 -298 Z" /><glyph glyph-name="aeacute" unicode="&#x1fd;" d="M1287 -19 q-129 0 -236 65 q-107 65 -150 166 l-16 0 q-53 -109 -158.5 -170 q-105.5 -61 -247.5 -61 q-171 0 -276 87 q-105 87 -105 234 q0 144 102 226 q102 82 291 93 l311 19 l0 98 q0 100 -62 153 q-62 53 -182 53 q-97 0 -161 -35 q-64 -35 -82 -99 l-174 0 q17 130 133.5 208.5 q116.5 78.5 289.5 78.5 q124 0 214.5 -50.5 q90.5 -50.5 133.5 -134.5 l16 0 q48 81 145.5 133 q97.5 52 211.5 52 q214 0 335 -140.5 q121 -140.5 121 -388.5 l0 -68 l-768 0 l0 -18 q7 -159 93 -253.5 q86 -94.5 225 -94.5 q100 0 164.5 35.5 q64.5 35.5 99.5 109.5 l172 0 q-41 -143 -155.5 -220.5 q-114.5 -77.5 -284.5 -77.5 ZM1276 946 q-130 0 -211.5 -82.5 q-81.5 -82.5 -91.5 -224.5 l587 0 q-3 135 -82.5 221 q-79.5 86 -201.5 86 ZM504 132 q128 0 213 80.5 q85 80.5 85 197.5 l0 91 l-290 -19 q-122 -8 -179 -51 q-57 -43 -57 -125 q0 -81 62.5 -127.5 q62.5 -46.5 165.5 -46.5 ZM1019 1263 l-194 0 l252 338 l220 0 l-278 -338 Z" /><glyph glyph-name="Oslashacute" unicode="&#x1fe;" d="M1206 1873 l-332 -298 l-204 0 l310 298 l226 0 ZM1158 1127 l-675 -881 q122 -114 308 -114 q221 0 348 160 q127 160 127 430 q0 249 -108 405 ZM403 346 l672 871 q-117 94 -284 94 q-220 0 -349 -159 q-129 -159 -129 -430 q0 -227 90 -376 ZM1382 1419 l-110 -143 q179 -202 179 -554 q0 -348 -176.5 -552 q-176.5 -204 -483.5 -204 q-248 0 -418 137 l-115 -150 l-100 76 l127 165 q-157 200 -157 528 q0 348 178.5 551.5 q178.5 203.5 484.5 203.5 q231 0 392 -119 l101 130 l98 -69 Z" /><glyph glyph-name="oslashacute" unicode="&#x1ff;" d="M939 1601 l-278 -338 l-194 0 l252 338 l220 0 ZM856 815 l-427 -629 q73 -50 176 -50 q153 0 236 105.5 q83 105.5 83 297.5 q0 175 -68 276 ZM344 280 l425 620 q-69 42 -164 42 q-153 0 -236 -105.5 q-83 -105.5 -83 -297.5 q0 -158 58 -259 ZM1018 1054 l-62 -92 q146 -149 146 -423 q0 -259 -133.5 -408.5 q-133.5 -149.5 -363.5 -149.5 q-155 0 -268 69 l-59 -87 l-104 69 l67 98 q-133 150 -133 409 q0 260 133 409 q133 149 364 149 q144 0 256 -62 l57 83 l100 -64 Z" /><glyph glyph-name="Adblgrave" unicode="&#x200;" d="M1122 0 l-145 413 l-574 0 l-145 -413 l-189 0 l532 1443 l178 0 l532 -1443 l-189 0 ZM682 1210 l-226 -644 l468 0 l-226 644 l-16 0 ZM810 1575 l-332 298 l226 0 l310 -298 l-204 0 ZM396 1575 l-332 298 l226 0 l310 -298 l-204 0 Z" /><glyph glyph-name="adblgrave" unicode="&#x201;" d="M494 132 q133 0 220.5 77 q87.5 77 87.5 193 l0 99 l-290 -19 q-122 -8 -179 -51 q-57 -43 -57 -125 q0 -81 61 -127.5 q61 -46.5 157 -46.5 ZM462 -19 q-159 0 -261.5 87.5 q-102.5 87.5 -102.5 233.5 q0 144 102 226 q102 82 291 93 l311 19 l0 98 q0 100 -62 153 q-62 53 -182 53 q-97 0 -161 -35 q-64 -35 -82 -99 l-174 0 q17 129 133.5 208 q116.5 79 289.5 79 q196 0 303 -95 q107 -95 107 -264 l0 -738 l-164 0 l0 159 l-16 0 q-52 -86 -138 -132 q-86 -46 -194 -46 ZM483 1263 l-182 0 l-280 338 l210 0 l252 -338 ZM883 1263 l-182 0 l-280 338 l210 0 l252 -338 Z" /><glyph glyph-name="Ainvertedbreve" unicode="&#x202;" d="M1122 0 l-145 413 l-574 0 l-145 -413 l-189 0 l532 1443 l178 0 l532 -1443 l-189 0 ZM682 1210 l-226 -644 l468 0 l-226 644 l-16 0 ZM326 1575 q0 135 98 216.5 q98 81.5 266 81.5 q168 0 266 -81.5 q98 -81.5 98 -216.5 l-154 0 q0 79 -56.5 126 q-56.5 47 -153.5 47 q-97 0 -153.5 -47 q-56.5 -47 -56.5 -126 l-154 0 Z" /><glyph glyph-name="ainvertedbreve" unicode="&#x203;" d="M494 132 q133 0 220.5 77 q87.5 77 87.5 193 l0 99 l-290 -19 q-122 -8 -179 -51 q-57 -43 -57 -125 q0 -81 61 -127.5 q61 -46.5 157 -46.5 ZM462 -19 q-159 0 -261.5 87.5 q-102.5 87.5 -102.5 233.5 q0 144 102 226 q102 82 291 93 l311 19 l0 98 q0 100 -62 153 q-62 53 -182 53 q-97 0 -161 -35 q-64 -35 -82 -99 l-174 0 q17 129 133.5 208 q116.5 79 289.5 79 q196 0 303 -95 q107 -95 107 -264 l0 -738 l-164 0 l0 159 l-16 0 q-52 -86 -138 -132 q-86 -46 -194 -46 ZM200 1228 q0 145 98 236.5 q98 91.5 266 91.5 q168 0 266 -91.5 q98 -91.5 98 -236.5 l-154 0 q0 89 -55.5 144.5 q-55.5 55.5 -154.5 55.5 q-99 0 -154.5 -55.5 q-55.5 -55.5 -55.5 -144.5 l-154 0 Z" /><glyph glyph-name="Edblgrave" unicode="&#x204;" d="M1078 162 l0 -162 l-894 0 l0 1443 l894 0 l0 -162 l-714 0 l0 -463 l677 0 l0 -160 l-677 0 l0 -496 l714 0 ZM751 1575 l-332 298 l226 0 l310 -298 l-204 0 ZM337 1575 l-332 298 l226 0 l310 -298 l-204 0 Z" /><glyph glyph-name="edblgrave" unicode="&#x205;" d="M592 945 q-129 0 -212 -87 q-83 -87 -93 -230 l594 0 q-3 143 -82 230 q-79 87 -207 87 ZM876 279 l172 0 q-39 -140 -158.5 -219 q-119.5 -79 -295.5 -79 q-224 0 -355 150.5 q-131 150.5 -131 406.5 q0 255 132 407 q132 152 354 152 q218 0 343 -145 q125 -145 125 -397 l0 -66 l-775 0 l0 -8 q7 -160 90.5 -254 q83.5 -94 220.5 -94 q209 0 278 146 ZM513 1263 l-182 0 l-280 338 l210 0 l252 -338 ZM913 1263 l-182 0 l-280 338 l210 0 l252 -338 Z" /><glyph glyph-name="Einvertedbreve" unicode="&#x206;" d="M1078 162 l0 -162 l-894 0 l0 1443 l894 0 l0 -162 l-714 0 l0 -463 l677 0 l0 -160 l-677 0 l0 -496 l714 0 ZM267 1575 q0 135 98 216.5 q98 81.5 266 81.5 q168 0 266 -81.5 q98 -81.5 98 -216.5 l-154 0 q0 79 -56.5 126 q-56.5 47 -153.5 47 q-97 0 -153.5 -47 q-56.5 -47 -56.5 -126 l-154 0 Z" /><glyph glyph-name="einvertedbreve" unicode="&#x207;" d="M592 945 q-129 0 -212 -87 q-83 -87 -93 -230 l594 0 q-3 143 -82 230 q-79 87 -207 87 ZM876 279 l172 0 q-39 -140 -158.5 -219 q-119.5 -79 -295.5 -79 q-224 0 -355 150.5 q-131 150.5 -131 406.5 q0 255 132 407 q132 152 354 152 q218 0 343 -145 q125 -145 125 -397 l0 -66 l-775 0 l0 -8 q7 -160 90.5 -254 q83.5 -94 220.5 -94 q209 0 278 146 ZM230 1228 q0 145 98 236.5 q98 91.5 266 91.5 q168 0 266 -91.5 q98 -91.5 98 -236.5 l-154 0 q0 89 -55.5 144.5 q-55.5 55.5 -154.5 55.5 q-99 0 -154.5 -55.5 q-55.5 -55.5 -55.5 -144.5 l-154 0 Z" /><glyph glyph-name="Idblgrave" unicode="&#x208;" d="M364 0 l-180 0 l0 1443 l180 0 l0 -1443 ZM394 1575 l-332 298 l226 0 l310 -298 l-204 0 ZM-20 1575 l-332 298 l226 0 l310 -298 l-204 0 Z" /><glyph glyph-name="idblgrave" unicode="&#x209;" d="M166 0 l0 1078 l172 0 l0 -1078 l-172 0 ZM171 1263 l-182 0 l-280 338 l210 0 l252 -338 ZM571 1263 l-182 0 l-280 338 l210 0 l252 -338 Z" /><glyph glyph-name="Iinvertedbreve" unicode="&#x20a;" d="M364 0 l-180 0 l0 1443 l180 0 l0 -1443 ZM-90 1575 q0 135 98 216.5 q98 81.5 266 81.5 q168 0 266 -81.5 q98 -81.5 98 -216.5 l-154 0 q0 79 -56.5 126 q-56.5 47 -153.5 47 q-97 0 -153.5 -47 q-56.5 -47 -56.5 -126 l-154 0 Z" /><glyph glyph-name="iinvertedbreve" unicode="&#x20b;" d="M166 0 l0 1078 l172 0 l0 -1078 l-172 0 ZM-112 1228 q0 145 98 236.5 q98 91.5 266 91.5 q168 0 266 -91.5 q98 -91.5 98 -236.5 l-154 0 q0 89 -55.5 144.5 q-55.5 55.5 -154.5 55.5 q-99 0 -154.5 -55.5 q-55.5 -55.5 -55.5 -144.5 l-154 0 Z" /><glyph glyph-name="Odblgrave" unicode="&#x20c;" d="M791 1477 q307 0 483.5 -203.5 q176.5 -203.5 176.5 -551.5 q0 -348 -176.5 -552 q-176.5 -204 -483.5 -204 q-309 0 -486 204 q-177 204 -177 552 q0 348 178.5 551.5 q178.5 203.5 484.5 203.5 ZM791 1311 q-220 0 -349 -159 q-129 -159 -129 -430 q0 -271 127.5 -430.5 q127.5 -159.5 350.5 -159.5 q221 0 348 160 q127 160 127 430 q0 272 -127 430.5 q-127 158.5 -348 158.5 ZM911 1575 l-332 298 l226 0 l310 -298 l-204 0 ZM497 1575 l-332 298 l226 0 l310 -298 l-204 0 Z" /><glyph glyph-name="odblgrave" unicode="&#x20d;" d="M968.5 130.5 q-133.5 -149.5 -363.5 -149.5 q-230 0 -363.5 149.5 q-133.5 149.5 -133.5 408.5 q0 260 133 409 q133 149 364 149 q231 0 364 -149 q133 -149 133 -409 q0 -259 -133.5 -408.5 ZM369 241.5 q83 -105.5 236 -105.5 q153 0 236 105.5 q83 105.5 83 297.5 q0 192 -83 297.5 q-83 105.5 -236 105.5 q-153 0 -236 -105.5 q-83 -105.5 -83 -297.5 q0 -192 83 -297.5 ZM524 1263 l-182 0 l-280 338 l210 0 l252 -338 ZM924 1263 l-182 0 l-280 338 l210 0 l252 -338 Z" /><glyph glyph-name="Oinvertedbreve" unicode="&#x20e;" d="M791 1477 q307 0 483.5 -203.5 q176.5 -203.5 176.5 -551.5 q0 -348 -176.5 -552 q-176.5 -204 -483.5 -204 q-309 0 -486 204 q-177 204 -177 552 q0 348 178.5 551.5 q178.5 203.5 484.5 203.5 ZM791 1311 q-220 0 -349 -159 q-129 -159 -129 -430 q0 -271 127.5 -430.5 q127.5 -159.5 350.5 -159.5 q221 0 348 160 q127 160 127 430 q0 272 -127 430.5 q-127 158.5 -348 158.5 ZM427 1575 q0 135 98 216.5 q98 81.5 266 81.5 q168 0 266 -81.5 q98 -81.5 98 -216.5 l-154 0 q0 79 -56.5 126 q-56.5 47 -153.5 47 q-97 0 -153.5 -47 q-56.5 -47 -56.5 -126 l-154 0 Z" /><glyph glyph-name="oinvertedbreve" unicode="&#x20f;" d="M968.5 130.5 q-133.5 -149.5 -363.5 -149.5 q-230 0 -363.5 149.5 q-133.5 149.5 -133.5 408.5 q0 260 133 409 q133 149 364 149 q231 0 364 -149 q133 -149 133 -409 q0 -259 -133.5 -408.5 ZM369 241.5 q83 -105.5 236 -105.5 q153 0 236 105.5 q83 105.5 83 297.5 q0 192 -83 297.5 q-83 105.5 -236 105.5 q-153 0 -236 -105.5 q-83 -105.5 -83 -297.5 q0 -192 83 -297.5 ZM241 1228 q0 145 98 236.5 q98 91.5 266 91.5 q168 0 266 -91.5 q98 -91.5 98 -236.5 l-154 0 q0 89 -55.5 144.5 q-55.5 55.5 -154.5 55.5 q-99 0 -154.5 -55.5 q-55.5 -55.5 -55.5 -144.5 l-154 0 Z" /><glyph glyph-name="Rdblgrave" unicode="&#x210;" d="M364 1283 l0 -552 l355 0 q139 0 214.5 71.5 q75.5 71.5 75.5 204.5 q0 130 -79 203 q-79 73 -219 73 l-347 0 ZM364 571 l0 -571 l-180 0 l0 1443 l551 0 q209 0 334.5 -117.5 q125.5 -117.5 125.5 -312.5 q0 -151 -77 -261 q-77 -110 -213 -153 l334 -599 l-211 0 l-309 571 l-355 0 ZM729 1575 l-332 298 l226 0 l310 -298 l-204 0 ZM315 1575 l-332 298 l226 0 l310 -298 l-204 0 Z" /><glyph glyph-name="rdblgrave" unicode="&#x211;" d="M162 0 l0 1078 l164 0 l0 -160 l16 0 q24 79 108 129 q84 50 191 50 q49 0 86 -5 l0 -172 q-35 10 -110 10 q-123 0 -203 -74 q-80 -74 -80 -188 l0 -668 l-172 0 ZM297 1263 l-182 0 l-280 338 l210 0 l252 -338 ZM697 1263 l-182 0 l-280 338 l210 0 l252 -338 Z" /><glyph glyph-name="Rinvertedbreve" unicode="&#x212;" d="M364 1283 l0 -552 l355 0 q139 0 214.5 71.5 q75.5 71.5 75.5 204.5 q0 130 -79 203 q-79 73 -219 73 l-347 0 ZM364 571 l0 -571 l-180 0 l0 1443 l551 0 q209 0 334.5 -117.5 q125.5 -117.5 125.5 -312.5 q0 -151 -77 -261 q-77 -110 -213 -153 l334 -599 l-211 0 l-309 571 l-355 0 ZM245 1575 q0 135 98 216.5 q98 81.5 266 81.5 q168 0 266 -81.5 q98 -81.5 98 -216.5 l-154 0 q0 79 -56.5 126 q-56.5 47 -153.5 47 q-97 0 -153.5 -47 q-56.5 -47 -56.5 -126 l-154 0 Z" /><glyph glyph-name="rinvertedbreve" unicode="&#x213;" d="M162 0 l0 1078 l164 0 l0 -160 l16 0 q24 79 108 129 q84 50 191 50 q49 0 86 -5 l0 -172 q-35 10 -110 10 q-123 0 -203 -74 q-80 -74 -80 -188 l0 -668 l-172 0 ZM14 1228 q0 145 98 236.5 q98 91.5 266 91.5 q168 0 266 -91.5 q98 -91.5 98 -236.5 l-154 0 q0 89 -55.5 144.5 q-55.5 55.5 -154.5 55.5 q-99 0 -154.5 -55.5 q-55.5 -55.5 -55.5 -144.5 l-154 0 Z" /><glyph glyph-name="Udblgrave" unicode="&#x214;" d="M369 1443 l0 -935 q0 -167 104.5 -271.5 q104.5 -104.5 288.5 -104.5 q184 0 288.5 104.5 q104.5 104.5 104.5 271.5 l0 935 l180 0 l0 -947 q0 -235 -154.5 -382.5 q-154.5 -147.5 -418.5 -147.5 q-264 0 -418.5 147.5 q-154.5 147.5 -154.5 382.5 l0 947 l180 0 ZM882 1575 l-332 298 l226 0 l310 -298 l-204 0 ZM468 1575 l-332 298 l226 0 l310 -298 l-204 0 Z" /><glyph glyph-name="udblgrave" unicode="&#x215;" d="M1034 1078 l0 -1078 l-164 0 l0 169 l-16 0 q-41 -91 -126 -139.5 q-85 -48.5 -208 -48.5 q-180 0 -274 103 q-94 103 -94 296 l0 698 l172 0 l0 -656 q0 -147 58 -215.5 q58 -68.5 186 -68.5 q141 0 217.5 79.5 q76.5 79.5 76.5 222.5 l0 638 l172 0 ZM512 1263 l-182 0 l-280 338 l210 0 l252 -338 ZM912 1263 l-182 0 l-280 338 l210 0 l252 -338 Z" /><glyph glyph-name="Uinvertedbreve" unicode="&#x216;" d="M369 1443 l0 -935 q0 -167 104.5 -271.5 q104.5 -104.5 288.5 -104.5 q184 0 288.5 104.5 q104.5 104.5 104.5 271.5 l0 935 l180 0 l0 -947 q0 -235 -154.5 -382.5 q-154.5 -147.5 -418.5 -147.5 q-264 0 -418.5 147.5 q-154.5 147.5 -154.5 382.5 l0 947 l180 0 ZM398 1575 q0 135 98 216.5 q98 81.5 266 81.5 q168 0 266 -81.5 q98 -81.5 98 -216.5 l-154 0 q0 79 -56.5 126 q-56.5 47 -153.5 47 q-97 0 -153.5 -47 q-56.5 -47 -56.5 -126 l-154 0 Z" /><glyph glyph-name="uinvertedbreve" unicode="&#x217;" d="M1034 1078 l0 -1078 l-164 0 l0 169 l-16 0 q-41 -91 -126 -139.5 q-85 -48.5 -208 -48.5 q-180 0 -274 103 q-94 103 -94 296 l0 698 l172 0 l0 -656 q0 -147 58 -215.5 q58 -68.5 186 -68.5 q141 0 217.5 79.5 q76.5 79.5 76.5 222.5 l0 638 l172 0 ZM229 1228 q0 145 98 236.5 q98 91.5 266 91.5 q168 0 266 -91.5 q98 -91.5 98 -236.5 l-154 0 q0 89 -55.5 144.5 q-55.5 55.5 -154.5 55.5 q-99 0 -154.5 -55.5 q-55.5 -55.5 -55.5 -144.5 l-154 0 Z" /><glyph glyph-name="Scommaaccent" unicode="&#x218;" d="M115 377 l182 0 q17 -113 117 -180 q100 -67 254 -67 q146 0 241.5 70.5 q95.5 70.5 95.5 177.5 q0 92 -70 152.5 q-70 60.5 -219 98.5 l-185 48 q-196 49 -285 142 q-89 93 -89 247 q0 184 140.5 297.5 q140.5 113.5 369.5 113.5 q209 0 350 -112 q141 -112 152 -287 l-181 0 q-19 111 -105.5 173.5 q-86.5 62.5 -221.5 62.5 q-144 0 -231.5 -66.5 q-87.5 -66.5 -87.5 -175.5 q0 -85 64.5 -138 q64.5 -53 213.5 -91 l151 -40 q224 -56 321.5 -150 q97.5 -94 97.5 -253 q0 -199 -146 -316.5 q-146 -117.5 -393 -117.5 q-229 0 -375.5 112 q-146.5 112 -160.5 299 ZM654 -518 l-167 0 l102 377 l182 0 l-117 -377 Z" /><glyph glyph-name="scommaaccent" unicode="&#x219;" d="M137 783 q0 134 115 224 q115 90 287 90 q169 0 279 -78 q110 -78 127 -211 l-170 0 q-18 66 -79.5 104.5 q-61.5 38.5 -157.5 38.5 q-97 0 -162.5 -45 q-65.5 -45 -65.5 -116 q0 -55 45.5 -91.5 q45.5 -36.5 141.5 -59.5 l166 -40 q154 -37 227.5 -107 q73.5 -70 73.5 -185 q0 -143 -123 -234.5 q-123 -91.5 -309 -91.5 q-180 0 -295 80 q-115 80 -129 214 l177 0 q22 -70 87 -109.5 q65 -39.5 166 -39.5 q109 0 179 47 q70 47 70 121 q0 110 -171 152 l-185 45 q-153 37 -223.5 106.5 q-70.5 69.5 -70.5 185.5 ZM535 -518 l-167 0 l102 377 l182 0 l-117 -377 Z" /><glyph glyph-name="Tcommaaccent" unicode="&#x21a;" d="M739 0 l-180 0 l0 1281 l-465 0 l0 162 l1110 0 l0 -162 l-465 0 l0 -1281 ZM652 -518 l-167 0 l102 377 l182 0 l-117 -377 Z" /><glyph glyph-name="tcommaaccent" unicode="&#x21b;" d="M234 1357 l172 0 l0 -279 l240 0 l0 -144 l-240 0 l0 -610 q0 -95 38 -138 q38 -43 122 -43 q37 0 80 4 l0 -145 q-57 -10 -101 -10 q-167 0 -239 67 q-72 67 -72 221 l0 654 l-174 0 l0 144 l174 0 l0 279 ZM419 -518 l-167 0 l102 377 l182 0 l-117 -377 Z" /><glyph glyph-name="Hcaron" unicode="&#x21e;" d="M1336 0 l-180 0 l0 657 l-792 0 l0 -657 l-180 0 l0 1443 l180 0 l0 -624 l792 0 l0 624 l180 0 l0 -1443 ZM678 1575 l-300 298 l202 0 l172 -177 l16 0 l172 177 l202 0 l-300 -298 l-164 0 Z" /><glyph glyph-name="hcaron" unicode="&#x21f;" d="M172 0 l0 1506 l172 0 l0 -598 l16 0 q41 91 125.5 140 q84.5 49 206.5 49 q172 0 272 -105.5 q100 -105.5 100 -293.5 l0 -698 l-172 0 l0 656 q0 286 -249 286 q-142 0 -220.5 -82.5 q-78.5 -82.5 -78.5 -221.5 l0 -638 l-172 0 ZM176 1638 l-300 298 l202 0 l172 -177 l16 0 l172 177 l202 0 l-300 -298 l-164 0 Z" /><glyph glyph-name="Adotaccent" unicode="&#x226;" d="M1122 0 l-145 413 l-574 0 l-145 -413 l-189 0 l532 1443 l178 0 l532 -1443 l-189 0 ZM682 1210 l-226 -644 l468 0 l-226 644 l-16 0 ZM775.5 1610.5 q-35.5 -35.5 -85.5 -35.5 q-50 0 -85.5 35.5 q-35.5 35.5 -35.5 85.5 q0 50 35.5 85.5 q35.5 35.5 85.5 35.5 q50 0 85.5 -35.5 q35.5 -35.5 35.5 -85.5 q0 -50 -35.5 -85.5 Z" /><glyph glyph-name="adotaccent" unicode="&#x227;" d="M494 132 q133 0 220.5 77 q87.5 77 87.5 193 l0 99 l-290 -19 q-122 -8 -179 -51 q-57 -43 -57 -125 q0 -81 61 -127.5 q61 -46.5 157 -46.5 ZM462 -19 q-159 0 -261.5 87.5 q-102.5 87.5 -102.5 233.5 q0 144 102 226 q102 82 291 93 l311 19 l0 98 q0 100 -62 153 q-62 53 -182 53 q-97 0 -161 -35 q-64 -35 -82 -99 l-174 0 q17 129 133.5 208 q116.5 79 289.5 79 q196 0 303 -95 q107 -95 107 -264 l0 -738 l-164 0 l0 159 l-16 0 q-52 -86 -138 -132 q-86 -46 -194 -46 ZM654 1324.5 q-38 -37.5 -90 -37.5 q-52 0 -90 37.5 q-38 37.5 -38 90.5 q0 52 37.5 89.5 q37.5 37.5 90.5 37.5 q53 0 90.5 -37.5 q37.5 -37.5 37.5 -89.5 q0 -53 -38 -90.5 Z" /><glyph glyph-name="Ecedilla" unicode="&#x228;" d="M1078 1281 l-714 0 l0 -463 l677 0 l0 -160 l-677 0 l0 -496 l714 0 l0 -162 l-372 0 l-51 -132 q102 0 158.5 -43 q56.5 -43 56.5 -120 q0 -85 -65.5 -137 q-65.5 -52 -178.5 -52 q-84 0 -146 18 l0 108 q48 -14 122 -14 q119 0 119 73 q0 35 -35 50 q-35 15 -114 15 l-59 0 l0 84 l61 150 l-390 0 l0 1443 l894 0 l0 -162 Z" /><glyph glyph-name="ecedilla" unicode="&#x229;" d="M287 628 l594 0 q-3 143 -82 230 q-79 87 -207 87 q-129 0 -212 -87 q-83 -87 -93 -230 ZM1062 489 l-775 0 l0 -8 q7 -160 90.5 -254 q83.5 -94 220.5 -94 q209 0 278 146 l172 0 q-35 -125 -135 -202 q-100 -77 -249 -93 l-45 -116 q102 0 158.5 -43 q56.5 -43 56.5 -120 q0 -85 -65.5 -137 q-65.5 -52 -178.5 -52 q-84 0 -146 18 l0 108 q48 -14 122 -14 q119 0 119 73 q0 35 -35 50 q-35 15 -114 15 l-59 0 l0 84 l55 134 q-198 22 -311 169.5 q-113 147.5 -113 384.5 q0 255 132 407 q132 152 354 152 q218 0 343 -145 q125 -145 125 -397 l0 -66 Z" /><glyph glyph-name="Odieresismacron" unicode="&#x22a;" d="M791 1477 q307 0 483.5 -203.5 q176.5 -203.5 176.5 -551.5 q0 -348 -176.5 -552 q-176.5 -204 -483.5 -204 q-309 0 -486 204 q-177 204 -177 552 q0 348 178.5 551.5 q178.5 203.5 484.5 203.5 ZM791 1311 q-220 0 -349 -159 q-129 -159 -129 -430 q0 -271 127.5 -430.5 q127.5 -159.5 350.5 -159.5 q221 0 348 160 q127 160 127 430 q0 272 -127 430.5 q-127 158.5 -348 158.5 ZM506 1775 q34 34 83 34 q49 0 83 -34 q34 -34 34 -83 q0 -49 -34 -83 q-34 -34 -83 -34 q-49 0 -83 34 q-34 34 -34 83 q0 49 34 83 ZM454 2062 l674 0 l0 -130 l-674 0 l0 130 ZM910 1775 q34 34 83 34 q49 0 83 -34 q34 -34 34 -83 q0 -49 -34 -83 q-34 -34 -83 -34 q-49 0 -83 34 q-34 34 -34 83 q0 49 34 83 Z" /><glyph glyph-name="odieresismacron" unicode="&#x22b;" d="M968.5 130.5 q-133.5 -149.5 -363.5 -149.5 q-230 0 -363.5 149.5 q-133.5 149.5 -133.5 408.5 q0 260 133 409 q133 149 364 149 q231 0 364 -149 q133 -149 133 -409 q0 -259 -133.5 -408.5 ZM369 241.5 q83 -105.5 236 -105.5 q153 0 236 105.5 q83 105.5 83 297.5 q0 192 -83 297.5 q-83 105.5 -236 105.5 q-153 0 -236 -105.5 q-83 -105.5 -83 -297.5 q0 -192 83 -297.5 ZM486 1262 q-34 -34 -83 -34 q-49 0 -83 34 q-34 34 -34 83 q0 49 34 83 q34 34 83 34 q49 0 83 -34 q34 -34 34 -83 q0 -49 -34 -83 ZM890 1262 q-34 -34 -83 -34 q-49 0 -83 34 q-34 34 -34 83 q0 49 34 83 q34 34 83 34 q49 0 83 -34 q34 -34 34 -83 q0 -49 -34 -83 ZM942 1756 l0 -136 l-674 0 l0 136 l674 0 Z" /><glyph glyph-name="Otildemacron" unicode="&#x22c;" d="M791 1477 q307 0 483.5 -203.5 q176.5 -203.5 176.5 -551.5 q0 -348 -176.5 -552 q-176.5 -204 -483.5 -204 q-309 0 -486 204 q-177 204 -177 552 q0 348 178.5 551.5 q178.5 203.5 484.5 203.5 ZM791 1311 q-220 0 -349 -159 q-129 -159 -129 -430 q0 -271 127.5 -430.5 q127.5 -159.5 350.5 -159.5 q221 0 348 160 q127 160 127 430 q0 272 -127 430.5 q-127 158.5 -348 158.5 ZM931 1575 q-47 0 -83 13 q-36 13 -57.5 32 q-21.5 19 -40 38 q-18.5 19 -42.5 32 q-24 13 -53 13 q-88 0 -94 -111 l-136 0 q0 106 63 173.5 q63 67.5 163 67.5 q47 0 83 -13 q36 -13 57.5 -32 q21.5 -19 40 -38 q18.5 -19 42.5 -32 q24 -13 53 -13 q38 0 64.5 27.5 q26.5 27.5 30.5 83.5 l135 0 q0 -102 -63.5 -171.5 q-63.5 -69.5 -162.5 -69.5 ZM1128 2062 l0 -130 l-674 0 l0 130 l674 0 Z" /><glyph glyph-name="otildemacron" unicode="&#x22d;" d="M968.5 130.5 q-133.5 -149.5 -363.5 -149.5 q-230 0 -363.5 149.5 q-133.5 149.5 -133.5 408.5 q0 260 133 409 q133 149 364 149 q231 0 364 -149 q133 -149 133 -409 q0 -259 -133.5 -408.5 ZM369 241.5 q83 -105.5 236 -105.5 q153 0 236 105.5 q83 105.5 83 297.5 q0 192 -83 297.5 q-83 105.5 -236 105.5 q-153 0 -236 -105.5 q-83 -105.5 -83 -297.5 q0 -192 83 -297.5 ZM751 1231 q-44 0 -82.5 16 q-38.5 16 -64.5 39.5 q-26 23.5 -48 46.5 q-22 23 -44.5 39 q-22.5 16 -44.5 16 q-53 0 -75.5 -36 q-22.5 -36 -22.5 -121 l-142 0 q0 136 61.5 213.5 q61.5 77.5 170.5 77.5 q44 0 82.5 -16 q38.5 -16 64.5 -39 q26 -23 48 -46.5 q22 -23.5 44.5 -39.5 q22.5 -16 44.5 -16 q53 0 75.5 36 q22.5 36 22.5 121 l142 0 q0 -136 -61.5 -213.5 q-61.5 -77.5 -170.5 -77.5 ZM942 1762 l0 -136 l-674 0 l0 136 l674 0 Z" /><glyph glyph-name="Odotaccent" unicode="&#x22e;" d="M791 1477 q307 0 483.5 -203.5 q176.5 -203.5 176.5 -551.5 q0 -348 -176.5 -552 q-176.5 -204 -483.5 -204 q-309 0 -486 204 q-177 204 -177 552 q0 348 178.5 551.5 q178.5 203.5 484.5 203.5 ZM791 1311 q-220 0 -349 -159 q-129 -159 -129 -430 q0 -271 127.5 -430.5 q127.5 -159.5 350.5 -159.5 q221 0 348 160 q127 160 127 430 q0 272 -127 430.5 q-127 158.5 -348 158.5 ZM876.5 1610.5 q-35.5 -35.5 -85.5 -35.5 q-50 0 -85.5 35.5 q-35.5 35.5 -35.5 85.5 q0 50 35.5 85.5 q35.5 35.5 85.5 35.5 q50 0 85.5 -35.5 q35.5 -35.5 35.5 -85.5 q0 -50 -35.5 -85.5 Z" /><glyph glyph-name="odotaccent" unicode="&#x22f;" d="M968.5 130.5 q-133.5 -149.5 -363.5 -149.5 q-230 0 -363.5 149.5 q-133.5 149.5 -133.5 408.5 q0 260 133 409 q133 149 364 149 q231 0 364 -149 q133 -149 133 -409 q0 -259 -133.5 -408.5 ZM369 241.5 q83 -105.5 236 -105.5 q153 0 236 105.5 q83 105.5 83 297.5 q0 192 -83 297.5 q-83 105.5 -236 105.5 q-153 0 -236 -105.5 q-83 -105.5 -83 -297.5 q0 -192 83 -297.5 ZM695.5 1324.5 q-37.5 -37.5 -90.5 -37.5 q-53 0 -90.5 37.5 q-37.5 37.5 -37.5 90.5 q0 52 37.5 89.5 q37.5 37.5 90.5 37.5 q53 0 90.5 -37.5 q37.5 -37.5 37.5 -89.5 q0 -53 -37.5 -90.5 Z" /><glyph glyph-name="Odotaccentmacron" unicode="&#x230;" d="M791 1477 q307 0 483.5 -203.5 q176.5 -203.5 176.5 -551.5 q0 -348 -176.5 -552 q-176.5 -204 -483.5 -204 q-309 0 -486 204 q-177 204 -177 552 q0 348 178.5 551.5 q178.5 203.5 484.5 203.5 ZM791 1311 q-220 0 -349 -159 q-129 -159 -129 -430 q0 -271 127.5 -430.5 q127.5 -159.5 350.5 -159.5 q221 0 348 160 q127 160 127 430 q0 272 -127 430.5 q-127 158.5 -348 158.5 ZM875 1611.5 q-35 -34.5 -84 -34.5 q-49 0 -84 34.5 q-35 34.5 -35 84.5 q0 50 35 84.5 q35 34.5 84 34.5 q49 0 84 -34.5 q35 -34.5 35 -84.5 q0 -50 -35 -84.5 ZM1128 2062 l0 -130 l-674 0 l0 130 l674 0 Z" /><glyph glyph-name="odotaccentmacron" unicode="&#x231;" d="M968.5 130.5 q-133.5 -149.5 -363.5 -149.5 q-230 0 -363.5 149.5 q-133.5 149.5 -133.5 408.5 q0 260 133 409 q133 149 364 149 q231 0 364 -149 q133 -149 133 -409 q0 -259 -133.5 -408.5 ZM369 241.5 q83 -105.5 236 -105.5 q153 0 236 105.5 q83 105.5 83 297.5 q0 192 -83 297.5 q-83 105.5 -236 105.5 q-153 0 -236 -105.5 q-83 -105.5 -83 -297.5 q0 -192 83 -297.5 ZM689.5 1262.5 q-34.5 -34.5 -84.5 -34.5 q-50 0 -84.5 34.5 q-34.5 34.5 -34.5 84.5 q0 50 34.5 84.5 q34.5 34.5 84.5 34.5 q50 0 84.5 -34.5 q34.5 -34.5 34.5 -84.5 q0 -50 -34.5 -84.5 ZM942 1756 l0 -136 l-674 0 l0 136 l674 0 Z" /><glyph glyph-name="Ymacron" unicode="&#x232;" d="M762 0 l-180 0 l0 621 l-512 822 l205 0 l389 -641 l16 0 l389 641 l205 0 l-512 -822 l0 -621 ZM1009 1756 l0 -136 l-674 0 l0 136 l674 0 Z" /><glyph glyph-name="ymacron" unicode="&#x233;" d="M254 -390 q-41 0 -77 6 l0 147 q26 -5 72 -5 q75 0 119.5 40 q44.5 40 78.5 137 l20 64 l-399 1079 l186 0 l296 -887 l16 0 l295 887 l183 0 l-421 -1144 q-69 -187 -147 -255.5 q-78 -68.5 -222 -68.5 ZM888 1422 l0 -136 l-674 0 l0 136 l674 0 Z" /><glyph glyph-name="dotlessj" unicode="&#x237;" d="M338 1078 l0 -1131 q0 -166 -80 -241.5 q-80 -75.5 -250 -75.5 l-30 0 l0 147 l26 0 q90 0 126 38 q36 38 36 129 l0 1134 l172 0 Z" /><glyph glyph-name="quoteright" unicode="&#x2bc;&#x2019;" d="M305 904 l-125 0 l91 539 l195 0 l-161 -539 Z" /><glyph glyph-name="circumflex" unicode="&#x2c6;" d="M648 1568 l282 -340 l-198 0 l-177 227 l-16 0 l-177 -227 l-198 0 l282 340 l202 0 Z" /><glyph glyph-name="caron" unicode="&#x2c7;" d="M648 1228 l-202 0 l-282 340 l198 0 l177 -227 l16 0 l177 227 l198 0 l-282 -340 Z" /><glyph glyph-name="breve" unicode="&#x2d8;" d="M160 1556 l154 0 q0 -89 55.5 -144.5 q55.5 -55.5 154.5 -55.5 q99 0 154.5 55.5 q55.5 55.5 55.5 144.5 l154 0 q0 -145 -98 -236.5 q-98 -91.5 -266 -91.5 q-168 0 -266 91.5 q-98 91.5 -98 236.5 Z" /><glyph glyph-name="dotaccent" unicode="&#x2d9;" d="M614 1324.5 q-38 -37.5 -90 -37.5 q-52 0 -90 37.5 q-38 37.5 -38 90.5 q0 52 37.5 89.5 q37.5 37.5 90.5 37.5 q53 0 90.5 -37.5 q37.5 -37.5 37.5 -89.5 q0 -53 -38 -90.5 Z" /><glyph glyph-name="ring" unicode="&#x2da;" d="M711 1294.5 q-68 -66.5 -164 -66.5 q-96 0 -164 66.5 q-68 66.5 -68 162.5 q0 96 68 162.5 q68 66.5 164 66.5 q96 0 164 -66.5 q68 -66.5 68 -162.5 q0 -96 -68 -162.5 ZM460 1369 q35 -35 87 -35 q52 0 87 35 q35 35 35 88 q0 53 -35 88 q-35 35 -87 35 q-52 0 -87 -35 q-35 -35 -35 -88 q0 -53 35 -88 Z" /><glyph glyph-name="ogonek" unicode="&#x2db;" d="M702 -289 l0 -125 q-46 -18 -110 -18 q-108 0 -171.5 51.5 q-63.5 51.5 -63.5 138.5 q0 62 41.5 121.5 q41.5 59.5 143.5 138.5 l169 0 q-114 -87 -155.5 -135 q-41.5 -48 -41.5 -95 q0 -41 30.5 -63.5 q30.5 -22.5 85.5 -22.5 q48 0 72 9 Z" /><glyph glyph-name="tilde" unicode="&#x2dc;" d="M692 1263 q-44 0 -82.5 16 q-38.5 16 -64.5 39.5 q-26 23.5 -48 46.5 q-22 23 -44.5 39 q-22.5 16 -44.5 16 q-53 0 -75.5 -36 q-22.5 -36 -22.5 -121 l-142 0 q0 136 61.5 213.5 q61.5 77.5 170.5 77.5 q44 0 82.5 -16 q38.5 -16 64.5 -39 q26 -23 48 -46.5 q22 -23.5 44.5 -39.5 q22.5 -16 44.5 -16 q53 0 75.5 36 q22.5 36 22.5 121 l142 0 q0 -136 -61.5 -213.5 q-61.5 -77.5 -170.5 -77.5 Z" /><glyph glyph-name="hungarumlaut" unicode="&#x2dd;" d="M485 1263 l252 338 l210 0 l-280 -338 l-182 0 ZM85 1263 l252 338 l210 0 l-280 -338 l-182 0 Z" /><glyph glyph-name="gravecmb" unicode="&#x300;" d="M122 1263 l-194 0 l-278 338 l220 0 l252 -338 Z" /><glyph glyph-name="acutecmb" unicode="&#x301;" d="M80 1263 l-194 0 l252 338 l220 0 l-278 -338 Z" /><glyph glyph-name="circumflexcmb" unicode="&#x302;" d="M101 1568 l282 -340 l-198 0 l-177 227 l-16 0 l-177 -227 l-198 0 l282 340 l202 0 Z" /><glyph glyph-name="tildecmb" unicode="&#x303;" d="M146 1231 q-44 0 -82.5 16 q-38.5 16 -64.5 39.5 q-26 23.5 -48 46.5 q-22 23 -44.5 39 q-22.5 16 -44.5 16 q-53 0 -75.5 -36 q-22.5 -36 -22.5 -121 l-142 0 q0 136 61.5 213.5 q61.5 77.5 170.5 77.5 q44 0 82.5 -16 q38.5 -16 64.5 -39 q26 -23 48 -46.5 q22 -23.5 44.5 -39.5 q22.5 -16 44.5 -16 q53 0 75.5 36 q22.5 36 22.5 121 l142 0 q0 -136 -61.5 -213.5 q-61.5 -77.5 -170.5 -77.5 Z" /><glyph glyph-name="macroncmb" unicode="&#x304;" d="M337 1422 l0 -136 l-674 0 l0 136 l674 0 Z" /><glyph glyph-name="brevecmb" unicode="&#x306;" d="M-366 1556 l154 0 q0 -89 55.5 -144.5 q55.5 -55.5 154.5 -55.5 q99 0 154.5 55.5 q55.5 55.5 55.5 144.5 l154 0 q0 -145 -98 -236.5 q-98 -91.5 -266 -91.5 q-168 0 -266 91.5 q-98 91.5 -98 236.5 Z" /><glyph glyph-name="dotaccentcmb" unicode="&#x307;" d="M90 1324.5 q-38 -37.5 -90 -37.5 q-52 0 -90 37.5 q-38 37.5 -38 90.5 q0 52 37.5 89.5 q37.5 37.5 90.5 37.5 q53 0 90.5 -37.5 q37.5 -37.5 37.5 -89.5 q0 -53 -38 -90.5 Z" /><glyph glyph-name="dieresiscmb" unicode="&#x308;" d="M-116.5 1263.5 q-35.5 -35.5 -85.5 -35.5 q-50 0 -85.5 35.5 q-35.5 35.5 -35.5 85.5 q0 50 35.5 85.5 q35.5 35.5 85.5 35.5 q50 0 85.5 -35.5 q35.5 -35.5 35.5 -85.5 q0 -50 -35.5 -85.5 ZM287.5 1263.5 q-35.5 -35.5 -85.5 -35.5 q-50 0 -85.5 35.5 q-35.5 35.5 -35.5 85.5 q0 50 35.5 85.5 q35.5 35.5 85.5 35.5 q50 0 85.5 -35.5 q35.5 -35.5 35.5 -85.5 q0 -50 -35.5 -85.5 Z" /><glyph glyph-name="hookabovecmb" unicode="&#x309;" d="M-144 1451 l0 123 q52 21 134 21 q106 0 167 -49.5 q61 -49.5 61 -134.5 q0 -69 -52 -130 q-52 -61 -134 -88 l-75 99 q49 14 80.5 44.5 q31.5 30.5 31.5 62.5 q0 32 -28.5 53.5 q-28.5 21.5 -71.5 21.5 q-69 0 -113 -23 Z" /><glyph glyph-name="ringcmb" unicode="&#x30a;" d="M164 1294.5 q-68 -66.5 -164 -66.5 q-96 0 -164 66.5 q-68 66.5 -68 162.5 q0 96 68 162.5 q68 66.5 164 66.5 q96 0 164 -66.5 q68 -66.5 68 -162.5 q0 -96 -68 -162.5 ZM-87 1369 q35 -35 87 -35 q52 0 87 35 q35 35 35 88 q0 53 -35 88 q-35 35 -87 35 q-52 0 -87 -35 q-35 -35 -35 -88 q0 -53 35 -88 Z" /><glyph glyph-name="hungarumlautcmb" unicode="&#x30b;" d="M65 1263 l252 338 l210 0 l-280 -338 l-182 0 ZM-335 1263 l252 338 l210 0 l-280 -338 l-182 0 Z" /><glyph glyph-name="caroncmb" unicode="&#x30c;" d="M101 1228 l-202 0 l-282 340 l198 0 l177 -227 l16 0 l177 227 l198 0 l-282 -340 Z" /><glyph glyph-name="dblgravecmb" unicode="&#x30f;" d="M-81 1263 l-182 0 l-280 338 l210 0 l252 -338 ZM319 1263 l-182 0 l-280 338 l210 0 l252 -338 Z" /><glyph glyph-name="invertedbrevecmb" unicode="&#x311;" d="M-364 1228 q0 145 98 236.5 q98 91.5 266 91.5 q168 0 266 -91.5 q98 -91.5 98 -236.5 l-154 0 q0 89 -55.5 144.5 q-55.5 55.5 -154.5 55.5 q-99 0 -154.5 -55.5 q-55.5 -55.5 -55.5 -144.5 l-154 0 Z" /><glyph glyph-name="horncmb" unicode="&#x31b;" d="M0 972 l0 139 q40 -43 103 -43 q65 0 93 40.5 q28 40.5 28 132.5 l0 156 l159 0 l0 -204 q0 -118 -68.5 -191.5 q-68.5 -73.5 -178.5 -73.5 q-81 0 -136 44 Z" /><glyph glyph-name="dotbelowcmb" unicode="&#x323;" d="M85.5 -366.5 q-35.5 -35.5 -85.5 -35.5 q-50 0 -85.5 35.5 q-35.5 35.5 -35.5 85.5 q0 50 35.5 85.5 q35.5 35.5 85.5 35.5 q50 0 85.5 -35.5 q35.5 -35.5 35.5 -85.5 q0 -50 -35.5 -85.5 Z" /><glyph glyph-name="dieresisbelowcmb" unicode="&#x324;" d="M-116.5 -396.5 q-35.5 -35.5 -85.5 -35.5 q-50 0 -85.5 35.5 q-35.5 35.5 -35.5 85.5 q0 50 35.5 85.5 q35.5 35.5 85.5 35.5 q50 0 85.5 -35.5 q35.5 -35.5 35.5 -85.5 q0 -50 -35.5 -85.5 ZM287.5 -396.5 q-35.5 -35.5 -85.5 -35.5 q-50 0 -85.5 35.5 q-35.5 35.5 -35.5 85.5 q0 50 35.5 85.5 q35.5 35.5 85.5 35.5 q50 0 85.5 -35.5 q35.5 -35.5 35.5 -85.5 q0 -50 -35.5 -85.5 Z" /><glyph glyph-name="ringbelowcmb" unicode="&#x325;" d="M164 -506.5 q-68 -66.5 -164 -66.5 q-96 0 -164 66.5 q-68 66.5 -68 162.5 q0 96 68 162.5 q68 66.5 164 66.5 q96 0 164 -66.5 q68 -66.5 68 -162.5 q0 -96 -68 -162.5 ZM-87 -432 q35 -35 87 -35 q52 0 87 35 q35 35 35 88 q0 53 -35 88 q-35 35 -87 35 q-52 0 -87 -35 q-35 -35 -35 -88 q0 -53 35 -88 Z" /><glyph glyph-name="commabelowcmb" unicode="&#x326;" d="M3 -518 l-167 0 l102 377 l182 0 l-117 -377 Z" /><glyph glyph-name="cedillacmb" unicode="&#x327;" d="M-118 -234 l0 84 l70 172 l123 0 l0 -22 l-51 -132 q102 0 158.5 -43 q56.5 -43 56.5 -120 q0 -85 -65.5 -137 q-65.5 -52 -178.5 -52 q-85 0 -146 18 l0 108 q48 -14 122 -14 q119 0 119 73 q0 35 -35 50 q-35 15 -114 15 l-59 0 Z" /><glyph glyph-name="ogonekcmb" unicode="&#x328;" d="M124 -289 l0 -125 q-46 -18 -110 -18 q-108 0 -171.5 51.5 q-63.5 51.5 -63.5 138.5 q0 62 41.5 121.5 q41.5 59.5 143.5 138.5 l169 0 q-114 -87 -155.5 -135 q-41.5 -48 -41.5 -95 q0 -41 30.5 -63.5 q30.5 -22.5 85.5 -22.5 q48 0 72 9 Z" /><glyph glyph-name="circumflexbelowcmb" unicode="&#x32d;" d="M-82 -139 l164 0 l300 -298 l-202 0 l-172 177 l-16 0 l-172 -177 l-202 0 l300 298 Z" /><glyph glyph-name="brevebelowcmb" unicode="&#x32e;" d="M-364 -134 l154 0 q0 -79 56.5 -126 q56.5 -47 153.5 -47 q97 0 153.5 47 q56.5 47 56.5 126 l154 0 q0 -135 -98 -216.5 q-98 -81.5 -266 -81.5 q-168 0 -266 81.5 q-98 81.5 -98 216.5 Z" /><glyph glyph-name="tildebelowcmb" unicode="&#x330;" d="M145 -419 q-44 0 -82.5 16 q-38.5 16 -64.5 39.5 q-26 23.5 -48 46.5 q-22 23 -44.5 39 q-22.5 16 -44.5 16 q-53 0 -75.5 -36 q-22.5 -36 -22.5 -121 l-142 0 q0 136 61.5 213.5 q61.5 77.5 170.5 77.5 q44 0 82.5 -16 q38.5 -16 64.5 -39 q26 -23 48 -46.5 q22 -23.5 44.5 -39.5 q22.5 -16 44.5 -16 q53 0 75.5 36 q22.5 36 22.5 121 l142 0 q0 -136 -61.5 -213.5 q-61.5 -77.5 -170.5 -77.5 Z" /><glyph glyph-name="macronbelowcmb" unicode="&#x331;&#x332;" d="M337 -212 l0 -136 l-674 0 l0 136 l674 0 Z" /><glyph glyph-name="greekquestionmark" unicode="&#x37e;" d="M304 759 q-53 0 -91.5 38.5 q-38.5 38.5 -38.5 91.5 q0 54 38.5 92 q38.5 38 91.5 38 q54 0 92 -38 q38 -38 38 -92 q0 -53 -38 -91.5 q-38 -38.5 -92 -38.5 ZM246 -367 l-129 0 l95 569 l191 0 l-157 -569 Z" /><glyph glyph-name="tonosgreek" unicode="&#x384;" d="M286 1263 l88 338 l206 0 l-135 -338 l-159 0 Z" /><glyph glyph-name="dieresistonosgreek" unicode="&#x385;" d="M429.5 1298.5 q-35.5 -35.5 -85.5 -35.5 q-50 0 -85.5 35.5 q-35.5 35.5 -35.5 85.5 q0 50 35.5 85.5 q35.5 35.5 85.5 35.5 q50 0 85.5 -35.5 q35.5 -35.5 35.5 -85.5 q0 -50 -35.5 -85.5 ZM1091.5 1298.5 q-35.5 -35.5 -85.5 -35.5 q-50 0 -85.5 35.5 q-35.5 35.5 -35.5 85.5 q0 50 35.5 85.5 q35.5 35.5 85.5 35.5 q50 0 85.5 -35.5 q35.5 -35.5 35.5 -85.5 q0 -50 -35.5 -85.5 ZM570 1263 l37 338 l196 0 l-84 -338 l-149 0 Z" /><glyph glyph-name="Alphatonosgreek" unicode="&#x386;" d="M1122 0 l-145 413 l-574 0 l-145 -413 l-189 0 l532 1443 l178 0 l532 -1443 l-189 0 ZM682 1210 l-226 -644 l468 0 l-226 644 l-16 0 ZM92 1105 l88 338 l206 0 l-135 -338 l-159 0 Z" /><glyph glyph-name="anoteleia" unicode="&#x387;" d="M304 409 q-53 0 -91.5 38.5 q-38.5 38.5 -38.5 91.5 q0 54 38.5 92 q38.5 38 91.5 38 q54 0 92 -38 q38 -38 38 -92 q0 -53 -38 -91.5 q-38 -38.5 -92 -38.5 Z" /><glyph glyph-name="Epsilontonosgreek" unicode="&#x388;" d="M1476 162 l0 -162 l-894 0 l0 1443 l894 0 l0 -162 l-714 0 l0 -463 l677 0 l0 -160 l-677 0 l0 -496 l714 0 ZM104 1105 l88 338 l206 0 l-135 -338 l-159 0 Z" /><glyph glyph-name="Etatonosgreek" unicode="&#x389;" d="M1734 0 l-180 0 l0 657 l-792 0 l0 -657 l-180 0 l0 1443 l180 0 l0 -624 l792 0 l0 624 l180 0 l0 -1443 ZM104 1105 l88 338 l206 0 l-135 -338 l-159 0 Z" /><glyph glyph-name="Iotatonosgreek" unicode="&#x38a;" d="M762 0 l-180 0 l0 1443 l180 0 l0 -1443 ZM104 1105 l88 338 l206 0 l-135 -338 l-159 0 Z" /><glyph glyph-name="Omicrontonosgreek" unicode="&#x38c;" d="M1055 1477 q307 0 483.5 -203.5 q176.5 -203.5 176.5 -551.5 q0 -348 -176.5 -552 q-176.5 -204 -483.5 -204 q-309 0 -486 204 q-177 204 -177 552 q0 348 178.5 551.5 q178.5 203.5 484.5 203.5 ZM1055 1311 q-220 0 -349 -159 q-129 -159 -129 -430 q0 -271 127.5 -430.5 q127.5 -159.5 350.5 -159.5 q221 0 348 160 q127 160 127 430 q0 272 -127 430.5 q-127 158.5 -348 158.5 ZM104 1105 l88 338 l206 0 l-135 -338 l-159 0 Z" /><glyph glyph-name="Upsilontonosgreek" unicode="&#x38e;" d="M1160 0 l-180 0 l0 621 l-512 822 l205 0 l389 -641 l16 0 l389 641 l205 0 l-512 -822 l0 -621 ZM104 1105 l88 338 l206 0 l-135 -338 l-159 0 Z" /><glyph glyph-name="Omegatonosgreek" unicode="&#x38f;" d="M1539 793 q0 241 -127 379.5 q-127 138.5 -348 138.5 q-221 0 -348 -138.5 q-127 -138.5 -127 -379.5 q0 -193 83 -336.5 q83 -143.5 258 -252.5 l0 -204 l-526 0 l0 162 l311 0 l0 16 q-147 94 -229 257 q-82 163 -82 362 q0 304 182 492 q182 188 478 188 q296 0 478 -188 q182 -188 182 -492 q0 -199 -82 -362 q-82 -163 -229 -257 l0 -16 l311 0 l0 -162 l-526 0 l0 204 q175 109 258 252.5 q83 143.5 83 336.5 ZM104 1105 l88 338 l206 0 l-135 -338 l-159 0 Z" /><glyph glyph-name="iotadieresistonosgreek" unicode="&#x390;" d="M162 1078 l172 0 l0 -754 q0 -94 37 -137.5 q37 -43.5 121 -43.5 q21 0 62 4 l0 -145 q-47 -10 -94 -10 q-161 0 -229.5 69 q-68.5 69 -68.5 221 l0 796 ZM23.5 1298.5 q-35.5 -35.5 -85.5 -35.5 q-50 0 -85.5 35.5 q-35.5 35.5 -35.5 85.5 q0 50 35.5 85.5 q35.5 35.5 85.5 35.5 q50 0 85.5 -35.5 q35.5 -35.5 35.5 -85.5 q0 -50 -35.5 -85.5 ZM685.5 1298.5 q-35.5 -35.5 -85.5 -35.5 q-50 0 -85.5 35.5 q-35.5 35.5 -35.5 85.5 q0 50 35.5 85.5 q35.5 35.5 85.5 35.5 q50 0 85.5 -35.5 q35.5 -35.5 35.5 -85.5 q0 -50 -35.5 -85.5 ZM164 1263 l37 338 l196 0 l-84 -338 l-149 0 Z" /><glyph glyph-name="Alphagreek" unicode="&#x391;" d="M1122 0 l-145 413 l-574 0 l-145 -413 l-189 0 l532 1443 l178 0 l532 -1443 l-189 0 ZM682 1210 l-226 -644 l468 0 l-226 644 l-16 0 Z" /><glyph glyph-name="Betagreek" unicode="&#x392;" d="M747 0 l-563 0 l0 1443 l552 0 q198 0 312.5 -97 q114.5 -97 114.5 -263 q0 -112 -72.5 -202 q-72.5 -90 -176.5 -109 l0 -16 q148 -19 235 -113.5 q87 -94.5 87 -237.5 q0 -191 -129.5 -298 q-129.5 -107 -359.5 -107 ZM364 1284 l0 -463 l288 0 q329 0 329 231 q0 110 -74.5 171 q-74.5 61 -208.5 61 l-334 0 ZM364 159 l356 0 q163 0 247 65 q84 65 84 190 q0 252 -348 252 l-339 0 l0 -507 Z" /><glyph glyph-name="Gammagreek" unicode="&#x393;" d="M364 0 l-180 0 l0 1443 l856 0 l0 -162 l-676 0 l0 -1281 Z" /><glyph glyph-name="Delta" unicode="&#x394;&#x2206;" d="M1291 0 l-1188 0 l0 127 l505 1316 l178 0 l505 -1316 l0 -127 ZM307 178 l0 -16 l780 0 l0 16 l-382 1042 l-16 0 l-382 -1042 Z" /><glyph glyph-name="Epsilongreek" unicode="&#x395;" d="M1078 162 l0 -162 l-894 0 l0 1443 l894 0 l0 -162 l-714 0 l0 -463 l677 0 l0 -160 l-677 0 l0 -496 l714 0 Z" /><glyph glyph-name="Zetagreek" unicode="&#x396;" d="M144 0 l0 128 l817 1137 l0 16 l-789 0 l0 162 l1022 0 l0 -128 l-813 -1137 l0 -16 l830 0 l0 -162 l-1067 0 Z" /><glyph glyph-name="Etagreek" unicode="&#x397;" d="M1336 0 l-180 0 l0 657 l-792 0 l0 -657 l-180 0 l0 1443 l180 0 l0 -624 l792 0 l0 624 l180 0 l0 -1443 Z" /><glyph glyph-name="Thetagreek" unicode="&#x398;" d="M1102 638 l-605 0 l0 162 l605 0 l0 -162 ZM801 1477 q311 0 490.5 -198.5 q179.5 -198.5 179.5 -556.5 q0 -358 -179 -557 q-179 -199 -491 -199 q-313 0 -493 199 q-180 199 -180 557 q0 358 181.5 556.5 q181.5 198.5 491.5 198.5 ZM1156 1157.5 q-130 153.5 -355 153.5 q-225 0 -356.5 -154 q-131.5 -154 -131.5 -435 q0 -281 130.5 -435.5 q130.5 -154.5 357.5 -154.5 q225 0 355 155 q130 155 130 435 q0 282 -130 435.5 Z" /><glyph glyph-name="Iotagreek" unicode="&#x399;" d="M364 0 l-180 0 l0 1443 l180 0 l0 -1443 Z" /><glyph glyph-name="Kappagreek" unicode="&#x39a;" d="M364 0 l-180 0 l0 1443 l180 0 l0 -701 l16 0 l632 701 l226 0 l-577 -623 l630 -820 l-233 0 l-521 695 l-173 -191 l0 -504 Z" /><glyph glyph-name="Lambdagreek" unicode="&#x39b;" d="M1096 0 l-404 1200 l-16 0 l-404 -1200 l-189 0 l512 1443 l178 0 l512 -1443 l-189 0 Z" /><glyph glyph-name="Mugreek" unicode="&#x39c;" d="M1606 0 l-168 0 l0 1102 l-12 0 l-455 -1092 l-152 0 l-455 1092 l-12 0 l0 -1102 l-168 0 l0 1443 l209 0 l494 -1194 l16 0 l494 1194 l209 0 l0 -1443 Z" /><glyph glyph-name="Nugreek" unicode="&#x39d;" d="M362 0 l-178 0 l0 1443 l175 0 l783 -1123 l16 0 l0 1123 l178 0 l0 -1443 l-175 0 l-783 1119 l-16 0 l0 -1119 Z" /><glyph glyph-name="Xigreek" unicode="&#x39e;" d="M142 1443 l1059 0 l0 -167 l-1059 0 l0 167 ZM1114 653 l-885 0 l0 165 l885 0 l0 -165 ZM142 167 l1059 0 l0 -167 l-1059 0 l0 167 Z" /><glyph glyph-name="Omicrongreek" unicode="&#x39f;" d="M791 1477 q307 0 483.5 -203.5 q176.5 -203.5 176.5 -551.5 q0 -348 -176.5 -552 q-176.5 -204 -483.5 -204 q-309 0 -486 204 q-177 204 -177 552 q0 348 178.5 551.5 q178.5 203.5 484.5 203.5 ZM791 1311 q-220 0 -349 -159 q-129 -159 -129 -430 q0 -271 127.5 -430.5 q127.5 -159.5 350.5 -159.5 q221 0 348 160 q127 160 127 430 q0 272 -127 430.5 q-127 158.5 -348 158.5 Z" /><glyph glyph-name="Pigreek" unicode="&#x3a0;" d="M1316 0 l-180 0 l0 1281 l-772 0 l0 -1281 l-180 0 l0 1443 l1132 0 l0 -1443 Z" /><glyph glyph-name="Rhogreek" unicode="&#x3a1;" d="M184 1443 l545 0 q205 0 333.5 -130.5 q128.5 -130.5 128.5 -336.5 q0 -202 -130.5 -331.5 q-130.5 -129.5 -333.5 -129.5 l-363 0 l0 -515 l-180 0 l0 1443 ZM364 1283 l0 -608 l318 0 q154 0 239 79 q85 79 85 222 q0 149 -83.5 228 q-83.5 79 -240.5 79 l-318 0 Z" /><glyph glyph-name="Sigmagreek" unicode="&#x3a3;" d="M372 178 l0 -16 l819 0 l0 -162 l-1047 0 l0 132 l419 593 l-402 566 l0 152 l1012 0 l0 -162 l-779 0 l0 -16 l357 -511 l0 -32 l-379 -544 Z" /><glyph glyph-name="Taugreek" unicode="&#x3a4;" d="M739 0 l-180 0 l0 1281 l-465 0 l0 162 l1110 0 l0 -162 l-465 0 l0 -1281 Z" /><glyph glyph-name="Upsilongreek" unicode="&#x3a5;" d="M762 0 l-180 0 l0 621 l-512 822 l205 0 l389 -641 l16 0 l389 641 l205 0 l-512 -822 l0 -621 Z" /><glyph glyph-name="Phigreek" unicode="&#x3a6;" d="M1287.5 376.5 q126.5 122.5 126.5 341.5 q0 219 -126.5 341.5 q-126.5 122.5 -339.5 130.5 l0 -944 q213 8 339.5 130.5 ZM428.5 1059.5 q-126.5 -122.5 -126.5 -341.5 q0 -219 126.5 -341.5 q126.5 -122.5 339.5 -130.5 l0 944 q-213 -8 -339.5 -130.5 ZM948 -58 l-180 0 l0 143 q-295 14 -472.5 183.5 q-177.5 169.5 -177.5 449.5 q0 280 177.5 449.5 q177.5 169.5 472.5 183.5 l0 146 l180 0 l0 -146 q295 -14 472.5 -183.5 q177.5 -169.5 177.5 -449.5 q0 -280 -177.5 -449.5 q-177.5 -169.5 -472.5 -183.5 l0 -143 Z" /><glyph glyph-name="Chigreek" unicode="&#x3a7;" d="M90 0 l494 726 l-488 717 l217 0 l380 -574 l16 0 l386 574 l205 0 l-500 -725 l489 -718 l-216 0 l-378 569 l-16 0 l-385 -569 l-204 0 Z" /><glyph glyph-name="Psigreek" unicode="&#x3a8;" d="M928 0 l-180 0 l0 339 q-260 1 -419.5 154.5 q-159.5 153.5 -159.5 404.5 l0 545 l180 0 l0 -539 q0 -188 103.5 -291.5 q103.5 -103.5 295.5 -107.5 l0 938 l180 0 l0 -938 q192 4 295.5 107.5 q103.5 103.5 103.5 291.5 l0 539 l180 0 l0 -545 q0 -251 -159.5 -405 q-159.5 -154 -419.5 -154 l0 -339 Z" /><glyph glyph-name="Omega" unicode="&#x3a9;&#x2126;" d="M1270 793 q0 241 -127 379.5 q-127 138.5 -348 138.5 q-221 0 -348 -138.5 q-127 -138.5 -127 -379.5 q0 -193 83 -336.5 q83 -143.5 258 -252.5 l0 -204 l-526 0 l0 162 l311 0 l0 16 q-147 94 -229 257 q-82 163 -82 362 q0 304 182 492 q182 188 478 188 q296 0 478 -188 q182 -188 182 -492 q0 -199 -82 -362 q-82 -163 -229 -257 l0 -16 l311 0 l0 -162 l-526 0 l0 204 q175 109 258 252.5 q83 143.5 83 336.5 Z" /><glyph glyph-name="Iotadieresisgreek" unicode="&#x3aa;" d="M364 0 l-180 0 l0 1443 l180 0 l0 -1443 ZM157.5 1610.5 q-35.5 -35.5 -85.5 -35.5 q-50 0 -85.5 35.5 q-35.5 35.5 -35.5 85.5 q0 50 35.5 85.5 q35.5 35.5 85.5 35.5 q50 0 85.5 -35.5 q35.5 -35.5 35.5 -85.5 q0 -50 -35.5 -85.5 ZM561.5 1610.5 q-35.5 -35.5 -85.5 -35.5 q-50 0 -85.5 35.5 q-35.5 35.5 -35.5 85.5 q0 50 35.5 85.5 q35.5 35.5 85.5 35.5 q50 0 85.5 -35.5 q35.5 -35.5 35.5 -85.5 q0 -50 -35.5 -85.5 Z" /><glyph glyph-name="Upsilondieresisgreek" unicode="&#x3ab;" d="M762 0 l-180 0 l0 621 l-512 822 l205 0 l389 -641 l16 0 l389 641 l205 0 l-512 -822 l0 -621 ZM555.5 1610.5 q-35.5 -35.5 -85.5 -35.5 q-50 0 -85.5 35.5 q-35.5 35.5 -35.5 85.5 q0 50 35.5 85.5 q35.5 35.5 85.5 35.5 q50 0 85.5 -35.5 q35.5 -35.5 35.5 -85.5 q0 -50 -35.5 -85.5 ZM959.5 1610.5 q-35.5 -35.5 -85.5 -35.5 q-50 0 -85.5 35.5 q-35.5 35.5 -35.5 85.5 q0 50 35.5 85.5 q35.5 35.5 85.5 35.5 q50 0 85.5 -35.5 q35.5 -35.5 35.5 -85.5 q0 -50 -35.5 -85.5 Z" /><glyph glyph-name="alphatonosgreek" unicode="&#x3ac;" d="M560 136 q150 0 238.5 109.5 q88.5 109.5 88.5 293.5 q0 181 -82.5 292 q-82.5 111 -221.5 111 q-142 0 -224.5 -107.5 q-82.5 -107.5 -82.5 -295.5 q0 -185 77.5 -294 q77.5 -109 206.5 -109 ZM547 -19 q-203 0 -326 152 q-123 152 -123 406 q0 253 123.5 405.5 q123.5 152.5 325.5 152.5 q243 0 327 -219 l16 0 l0 200 l166 0 l0 -809 q0 -72 21 -100 q21 -28 69 -28 q26 0 49 4 l0 -145 q-36 -10 -87 -10 q-96 0 -151.5 48 q-55.5 48 -65.5 142 l-1 10 l-16 0 q-88 -209 -327 -209 ZM477 1263 l88 338 l206 0 l-135 -338 l-159 0 Z" /><glyph glyph-name="epsilontonosgreek" unicode="&#x3ad;" d="M552 -21 q-205 0 -324.5 86.5 q-119.5 86.5 -119.5 223.5 q0 178 186 240 l0 16 q-166 67 -166 235 q0 144 117.5 229.5 q117.5 85.5 306.5 85.5 q197 0 312.5 -81.5 q115.5 -81.5 139.5 -236.5 l-174 0 q-21 79 -93 121 q-72 42 -185 42 q-116 0 -186.5 -44 q-70.5 -44 -70.5 -121 q0 -71 61.5 -113.5 q61.5 -42.5 177.5 -42.5 l153 0 l0 -154 l-153 0 q-120 0 -184 -44.5 q-64 -44.5 -64 -119.5 q0 -77 69.5 -121.5 q69.5 -44.5 196.5 -44.5 q115 0 196 51 q81 51 103 138 l174 0 q-17 -99 -83.5 -178 q-66.5 -79 -168.5 -123 q-102 -44 -221 -44 ZM480 1263 l88 338 l206 0 l-135 -338 l-159 0 Z" /><glyph glyph-name="etatonosgreek" unicode="&#x3ae;" d="M1105 -360 l-172 0 l0 1016 q0 286 -248 286 q-130 0 -204.5 -82.5 q-74.5 -82.5 -74.5 -221.5 l0 -638 l-172 0 l0 809 q0 73 -22.5 100.5 q-22.5 27.5 -77.5 27.5 q-26 0 -49 -4 l0 145 q36 10 92 10 q90 0 147 -41.5 q57 -41.5 70 -120.5 l3 -18 l16 0 q40 88 125 138.5 q85 50.5 196 50.5 q177 0 274 -104 q97 -104 97 -295 l0 -1058 ZM473 1263 l88 338 l206 0 l-135 -338 l-159 0 Z" /><glyph glyph-name="iotatonosgreek" unicode="&#x3af;" d="M162 1078 l172 0 l0 -754 q0 -94 37 -137.5 q37 -43.5 121 -43.5 q21 0 62 4 l0 -145 q-47 -10 -94 -10 q-161 0 -229.5 69 q-68.5 69 -68.5 221 l0 796 ZM160 1263 l88 338 l206 0 l-135 -338 l-159 0 Z" /><glyph glyph-name="upsilondieresistonosgreek" unicode="&#x3b0;" d="M574 -19 q-198 0 -312 110.5 q-114 110.5 -114 323.5 l0 663 l172 0 l0 -654 q0 -143 65 -214.5 q65 -71.5 184 -71.5 q123 0 196.5 103 q73.5 103 73.5 292 q0 182 -20 288.5 q-20 106.5 -82 256.5 l178 0 q46 -94 74 -237.5 q28 -143.5 28 -283.5 q0 -275 -115.5 -425.5 q-115.5 -150.5 -327.5 -150.5 ZM317.5 1298.5 q-35.5 -35.5 -85.5 -35.5 q-50 0 -85.5 35.5 q-35.5 35.5 -35.5 85.5 q0 50 35.5 85.5 q35.5 35.5 85.5 35.5 q50 0 85.5 -35.5 q35.5 -35.5 35.5 -85.5 q0 -50 -35.5 -85.5 ZM979.5 1298.5 q-35.5 -35.5 -85.5 -35.5 q-50 0 -85.5 35.5 q-35.5 35.5 -35.5 85.5 q0 50 35.5 85.5 q35.5 35.5 85.5 35.5 q50 0 85.5 -35.5 q35.5 -35.5 35.5 -85.5 q0 -50 -35.5 -85.5 ZM458 1263 l37 338 l196 0 l-84 -338 l-149 0 Z" /><glyph glyph-name="alphagreek" unicode="&#x3b1;" d="M560 136 q150 0 238.5 109.5 q88.5 109.5 88.5 293.5 q0 181 -82.5 292 q-82.5 111 -221.5 111 q-142 0 -224.5 -107.5 q-82.5 -107.5 -82.5 -295.5 q0 -185 77.5 -294 q77.5 -109 206.5 -109 ZM547 -19 q-203 0 -326 152 q-123 152 -123 406 q0 253 123.5 405.5 q123.5 152.5 325.5 152.5 q243 0 327 -219 l16 0 l0 200 l166 0 l0 -809 q0 -72 21 -100 q21 -28 69 -28 q26 0 49 4 l0 -145 q-36 -10 -87 -10 q-96 0 -151.5 48 q-55.5 48 -65.5 142 l-1 10 l-16 0 q-88 -209 -327 -209 Z" /><glyph glyph-name="betagreek" unicode="&#x3b2;" d="M502 735 l0 154 l89 0 q127 0 196.5 62 q69.5 62 69.5 178 q0 110 -68 175.5 q-68 65.5 -179 65.5 q-137 0 -206.5 -90.5 q-69.5 -90.5 -69.5 -268.5 l0 -503 q0 -170 93.5 -271 q93.5 -101 244.5 -101 q118 0 199 84 q81 84 81 210 q0 150 -92.5 227.5 q-92.5 77.5 -269.5 77.5 l-88 0 ZM162 1029 q0 235 116.5 365.5 q116.5 130.5 326.5 130.5 q189 0 307 -104 q118 -104 118 -281 q0 -101 -54.5 -182 q-54.5 -81 -149.5 -122 l0 -16 q149 -37 226.5 -135 q77.5 -98 77.5 -249 q0 -200 -126.5 -327.5 q-126.5 -127.5 -322.5 -127.5 q-119 0 -204.5 48 q-85.5 48 -126.5 133 l-16 0 l0 -522 l-172 0 l0 1389 Z" /><glyph glyph-name="gammagreek" unicode="&#x3b3;" d="M600 -350 l-172 0 l0 329 l-356 1099 l184 0 l274 -921 l16 0 q273 381 273 723 q0 115 -18 198 l172 0 q19 -97 19 -198 q0 -197 -94.5 -419 q-94.5 -222 -297.5 -489 l0 -322 Z" /><glyph glyph-name="deltagreek" unicode="&#x3b4;" d="M587 -19 q-225 0 -360 142.5 q-135 142.5 -135 371.5 q0 194 110 328 q110 134 276 167 l0 19 q-111 60 -156 117.5 q-45 57.5 -45 139.5 q0 118 102.5 188.5 q102.5 70.5 256.5 70.5 q212 0 333 -82 l0 -152 q-163 83 -341 83 q-86 0 -132.5 -30 q-46.5 -30 -46.5 -84 q0 -48 41 -86 q41 -38 171 -100 q213 -102 314 -240 q101 -138 101 -329 q0 -233 -139 -378.5 q-139 -145.5 -350 -145.5 ZM587 132 q138 0 225 101.5 q87 101.5 87 271.5 q0 166 -90.5 272 q-90.5 106 -227.5 106 q-132 0 -222 -102 q-90 -102 -90 -276 q0 -170 88.5 -271.5 q88.5 -101.5 229.5 -101.5 Z" /><glyph glyph-name="epsilongreek" unicode="&#x3b5;" d="M552 -19 q-205 0 -324.5 86.5 q-119.5 86.5 -119.5 223.5 q0 178 186 240 l0 16 q-166 67 -166 235 q0 144 117.5 229.5 q117.5 85.5 306.5 85.5 q197 0 312.5 -81.5 q115.5 -81.5 139.5 -236.5 l-174 0 q-21 79 -93 121 q-72 42 -185 42 q-116 0 -186.5 -44 q-70.5 -44 -70.5 -121 q0 -71 61.5 -113.5 q61.5 -42.5 177.5 -42.5 l153 0 l0 -154 l-153 0 q-120 0 -184 -44.5 q-64 -44.5 -64 -119.5 q0 -77 69.5 -121.5 q69.5 -44.5 196.5 -44.5 q115 0 196 51 q81 51 103 138 l174 0 q-17 -99 -83.5 -178 q-66.5 -79 -168.5 -123 q-102 -44 -221 -44 Z" /><glyph glyph-name="zetagreek" unicode="&#x3b6;" d="M814 -361 l-141 42 q70 115 70 195 q0 68 -41.5 102.5 q-41.5 34.5 -173.5 78.5 q-244 80 -342.5 198 q-98.5 118 -98.5 323 q0 394 517 758 l0 16 l-430 0 l0 154 l711 0 l0 -153 q-322 -196 -471 -381 q-149 -185 -149 -394 q0 -145 69.5 -224.5 q69.5 -79.5 258.5 -141.5 q184 -60 251 -126.5 q67 -66.5 67 -182.5 q0 -127 -97 -264 Z" /><glyph glyph-name="etagreek" unicode="&#x3b7;" d="M1105 -360 l-172 0 l0 1016 q0 286 -248 286 q-130 0 -204.5 -82.5 q-74.5 -82.5 -74.5 -221.5 l0 -638 l-172 0 l0 809 q0 73 -22.5 100.5 q-22.5 27.5 -77.5 27.5 q-26 0 -49 -4 l0 145 q36 10 92 10 q90 0 147 -41.5 q57 -41.5 70 -120.5 l3 -18 l16 0 q40 88 125 138.5 q85 50.5 196 50.5 q177 0 274 -104 q97 -104 97 -295 l0 -1058 Z" /><glyph glyph-name="thetagreek" unicode="&#x3b8;" d="M603 -19 q-239 0 -367 198 q-128 198 -128 573 q0 379 128 576 q128 197 367 197 q238 0 366.5 -196 q128.5 -196 128.5 -580 q0 -374 -128.5 -571 q-128.5 -197 -366.5 -197 ZM372 265.5 q79 -129.5 231 -129.5 q152 0 231 129.5 q79 129.5 87 420.5 l-636 0 q8 -291 87 -420.5 ZM286 840 l634 0 q-12 276 -92 403 q-80 127 -225 127 q-146 0 -225.5 -128 q-79.5 -128 -91.5 -402 Z" /><glyph glyph-name="iotagreek" unicode="&#x3b9;" d="M162 1078 l172 0 l0 -754 q0 -94 37 -137.5 q37 -43.5 121 -43.5 q21 0 62 4 l0 -145 q-47 -10 -94 -10 q-161 0 -229.5 69 q-68.5 69 -68.5 221 l0 796 Z" /><glyph glyph-name="kappagreek" unicode="&#x3ba;" d="M162 0 l0 1078 l172 0 l0 -539 l16 0 l315 370 q89 104 151.5 141.5 q62.5 37.5 146.5 37.5 q46 0 82 -10 l0 -145 q-24 4 -59 4 q-57 0 -99 -28 q-42 -28 -113 -112 l-122 -145 l431 -652 l-195 0 l-342 531 l-212 -231 l0 -300 l-172 0 Z" /><glyph glyph-name="lambdagreek" unicode="&#x3bb;" d="M25 0 l430 1018 l-36 98 q-34 93 -54.5 139 q-20.5 46 -47.5 75.5 q-27 29.5 -54 36.5 q-27 7 -76 7 q-14 0 -45 -4 l0 145 q36 10 88 10 q90 0 147.5 -32 q57.5 -32 104 -111 q46.5 -79 99.5 -234 l306 -898 q20 -59 52.5 -84 q32.5 -25 83.5 -25 q23 0 48 4 l0 -145 q-36 -10 -76 -10 q-112 0 -168.5 47 q-56.5 47 -99.5 179 l-192 585 l-16 0 l-308 -801 l-186 0 Z" /><glyph glyph-name="nugreek" unicode="&#x3bd;" d="M421 0 l-349 1078 l184 0 l273 -922 l16 0 q274 387 274 725 q0 110 -18 197 l172 0 q19 -98 19 -195 q0 -384 -371 -883 l-200 0 Z" /><glyph glyph-name="xigreek" unicode="&#x3be;" d="M815 -361 l-141 42 q39 67 54.5 109.5 q15.5 42.5 15.5 84.5 q0 46 -15.5 73.5 q-15.5 27.5 -64.5 54 q-49 26.5 -150 59.5 q-230 74 -328 165.5 q-98 91.5 -98 225.5 q0 121 74 206.5 q74 85.5 214 124.5 l0 15 q-119 47 -172 114.5 q-53 67.5 -53 171.5 q0 92 61.5 162 q61.5 70 159.5 90 l0 15 l-217 0 l0 154 l731 0 l0 -137 l-103 -11 q-250 -26 -359 -93 q-109 -67 -109 -183 q0 -101 86 -151 q86 -50 277 -50 l135 0 l0 -154 l-138 0 q-195 0 -302.5 -68 q-107.5 -68 -107.5 -183 q0 -62 26.5 -103.5 q26.5 -41.5 99 -80 q72.5 -38.5 209.5 -82.5 q179 -57 245.5 -125.5 q66.5 -68.5 66.5 -178.5 q0 -68 -20.5 -124 q-20.5 -56 -76.5 -143 Z" /><glyph glyph-name="omicrongreek" unicode="&#x3bf;" d="M930.5 131 q-131.5 -150 -350.5 -150 q-219 0 -350.5 150 q-131.5 150 -131.5 408 q0 259 132 408.5 q132 149.5 350 149.5 q218 0 350 -149.5 q132 -149.5 132 -408.5 q0 -258 -131.5 -408 ZM357.5 243 q81.5 -107 222.5 -107 q141 0 222.5 107 q81.5 107 81.5 296 q0 190 -82 296.5 q-82 106.5 -222 106.5 q-140 0 -222 -106.5 q-82 -106.5 -82 -296.5 q0 -189 81.5 -296 Z" /><glyph glyph-name="pi" unicode="&#x3c0;" d="M297 0 l0 924 l-227 0 l0 154 l1195 0 l0 -154 l-210 0 l0 -655 q0 -74 25 -101 q25 -27 90 -27 q23 0 49 4 l0 -145 q-38 -10 -92 -10 q-129 0 -184 66.5 q-55 66.5 -55 211.5 l0 656 l-424 0 l0 -924 l-167 0 Z" /><glyph glyph-name="rhogreek" unicode="&#x3c1;" d="M626 136 q147 0 231.5 110.5 q84.5 110.5 84.5 309.5 q0 183 -82.5 284.5 q-82.5 101.5 -226.5 101.5 q-144 0 -229 -111.5 q-85 -111.5 -85 -307.5 q0 -171 87 -279 q87 -108 220 -108 ZM152 -360 l0 903 q0 260 130 407 q130 147 351 147 q224 0 355.5 -147 q131.5 -147 131.5 -396 q0 -264 -124 -418.5 q-124 -154.5 -331 -154.5 q-105 0 -193 48 q-88 48 -132 133 l-16 0 l0 -522 l-172 0 Z" /><glyph glyph-name="sigmafinalgreek" unicode="&#x3c2;" d="M922 -96 q0 -127 -97 -264 l-141 42 q70 115 70 195 q0 64 -41 99.5 q-41 35.5 -176 81.5 q-245 84 -342 195.5 q-97 111.5 -97 307.5 q0 244 137 390 q137 146 346 146 q180 0 293.5 -92.5 q113.5 -92.5 139.5 -256.5 l-174 0 q-28 99 -90.5 146.5 q-62.5 47.5 -173.5 47.5 q-126 0 -213 -101.5 q-87 -101.5 -87 -271.5 q0 -78 15 -130.5 q15 -52.5 55.5 -93.5 q40.5 -41 99 -70 q58.5 -29 156.5 -62 q185 -62 252.5 -127.5 q67.5 -65.5 67.5 -181.5 Z" /><glyph glyph-name="sigmagreek" unicode="&#x3c3;" d="M578 -19 q-216 0 -348 150.5 q-132 150.5 -132 402.5 q0 250 145 397 q145 147 391 147 l565 0 l0 -154 l-301 0 l0 -16 q74 -56 116.5 -155.5 q42.5 -99.5 42.5 -216.5 q0 -249 -134 -402 q-134 -153 -345 -153 ZM578 136 q141 0 226 106.5 q85 106.5 85 290.5 q0 177 -87.5 283.5 q-87.5 106.5 -212.5 106.5 q-140 0 -226.5 -106.5 q-86.5 -106.5 -86.5 -283.5 q0 -186 82.5 -291.5 q82.5 -105.5 219.5 -105.5 Z" /><glyph glyph-name="taugreek" unicode="&#x3c4;" d="M718 -8 q-171 0 -243 66.5 q-72 66.5 -72 222.5 l0 643 l-343 0 l0 154 l885 0 l0 -154 l-370 0 l0 -600 q0 -96 38 -138.5 q38 -42.5 126 -42.5 q36 0 76 4 l0 -145 q-53 -10 -97 -10 Z" /><glyph glyph-name="upsilongreek" unicode="&#x3c5;" d="M574 -19 q-198 0 -312 110.5 q-114 110.5 -114 323.5 l0 663 l172 0 l0 -654 q0 -143 65 -214.5 q65 -71.5 184 -71.5 q123 0 196.5 103 q73.5 103 73.5 292 q0 182 -20 288.5 q-20 106.5 -82 256.5 l178 0 q46 -94 74 -237.5 q28 -143.5 28 -283.5 q0 -275 -115.5 -425.5 q-115.5 -150.5 -327.5 -150.5 Z" /><glyph glyph-name="phigreek" unicode="&#x3c6;" d="M652 -360 l0 342 q-266 18 -410 169 q-144 151 -144 388 q0 129 42.5 232.5 q42.5 103.5 117.5 171.5 q75 68 175 106.5 q100 38.5 219 46.5 l0 261 l166 0 l0 -261 q119 -8 219 -46.5 q100 -38.5 175 -106.5 q75 -68 117.5 -171.5 q42.5 -103.5 42.5 -232.5 q0 -237 -144 -388 q-144 -151 -410 -169 l0 -342 l-166 0 ZM818 126 q187 21 283.5 131.5 q96.5 110.5 96.5 281.5 q0 180 -102.5 286.5 q-102.5 106.5 -277.5 124.5 l0 -824 ZM652 126 l0 824 q-175 -18 -277.5 -124.5 q-102.5 -106.5 -102.5 -286.5 q0 -171 96.5 -281.5 q96.5 -110.5 283.5 -131.5 Z" /><glyph glyph-name="chigreek" unicode="&#x3c7;" d="M65 -360 l393 719 l-231 466 q-31 62 -65 87 q-34 25 -85 25 q-20 0 -40 -4 l0 145 q36 10 80 10 q94 0 147 -42.5 q53 -42.5 110 -157.5 l180 -364 l16 0 l280 554 l183 0 l-395 -729 l229 -458 q30 -60 64 -85 q34 -25 87 -25 q15 0 38 4 l0 -145 q-36 -10 -80 -10 q-87 0 -141 38 q-54 38 -103 136 l-191 381 l-16 0 l-277 -545 l-183 0 Z" /><glyph glyph-name="psigreek" unicode="&#x3c8;" d="M609 -360 l0 341 q-218 7 -339.5 125.5 q-121.5 118.5 -121.5 311.5 l0 660 l172 0 l0 -639 q0 -142 78.5 -219.5 q78.5 -77.5 210.5 -81.5 l0 1219 l167 0 l0 -1219 q149 5 229.5 107 q80.5 102 80.5 296 q0 170 -23 290.5 q-23 120.5 -79 246.5 l178 0 q43 -87 72.5 -232 q29.5 -145 29.5 -273 q0 -273 -132 -428 q-132 -155 -356 -164 l0 -341 l-167 0 Z" /><glyph glyph-name="omegagreek" unicode="&#x3c9;" d="M1077 -19 q-201 0 -288 221 l-16 0 q-87 -221 -288 -221 q-173 0 -270 137 q-97 137 -97 388 q0 163 47.5 317.5 q47.5 154.5 129.5 254.5 l188 0 q-187 -251 -187 -570 q0 -370 203 -370 q86 0 141 77 q55 77 55 205 l0 349 l172 0 l0 -349 q0 -127 55 -204.5 q55 -77.5 139 -77.5 q205 0 205 370 q0 319 -187 570 l188 0 q82 -100 129.5 -254.5 q47.5 -154.5 47.5 -317.5 q0 -252 -96.5 -388.5 q-96.5 -136.5 -270.5 -136.5 Z" /><glyph glyph-name="iotadieresisgreek" unicode="&#x3ca;" d="M162 1078 l172 0 l0 -754 q0 -94 37 -137.5 q37 -43.5 121 -43.5 q21 0 62 4 l0 -145 q-47 -10 -94 -10 q-161 0 -229.5 69 q-68.5 69 -68.5 221 l0 796 ZM127.5 1263.5 q-35.5 -35.5 -85.5 -35.5 q-50 0 -85.5 35.5 q-35.5 35.5 -35.5 85.5 q0 50 35.5 85.5 q35.5 35.5 85.5 35.5 q50 0 85.5 -35.5 q35.5 -35.5 35.5 -85.5 q0 -50 -35.5 -85.5 ZM531.5 1263.5 q-35.5 -35.5 -85.5 -35.5 q-50 0 -85.5 35.5 q-35.5 35.5 -35.5 85.5 q0 50 35.5 85.5 q35.5 35.5 85.5 35.5 q50 0 85.5 -35.5 q35.5 -35.5 35.5 -85.5 q0 -50 -35.5 -85.5 Z" /><glyph glyph-name="upsilondieresisgreek" unicode="&#x3cb;" d="M574 -19 q-198 0 -312 110.5 q-114 110.5 -114 323.5 l0 663 l172 0 l0 -654 q0 -143 65 -214.5 q65 -71.5 184 -71.5 q123 0 196.5 103 q73.5 103 73.5 292 q0 182 -20 288.5 q-20 106.5 -82 256.5 l178 0 q46 -94 74 -237.5 q28 -143.5 28 -283.5 q0 -275 -115.5 -425.5 q-115.5 -150.5 -327.5 -150.5 ZM438.5 1263.5 q-35.5 -35.5 -85.5 -35.5 q-50 0 -85.5 35.5 q-35.5 35.5 -35.5 85.5 q0 50 35.5 85.5 q35.5 35.5 85.5 35.5 q50 0 85.5 -35.5 q35.5 -35.5 35.5 -85.5 q0 -50 -35.5 -85.5 ZM842.5 1263.5 q-35.5 -35.5 -85.5 -35.5 q-50 0 -85.5 35.5 q-35.5 35.5 -35.5 85.5 q0 50 35.5 85.5 q35.5 35.5 85.5 35.5 q50 0 85.5 -35.5 q35.5 -35.5 35.5 -85.5 q0 -50 -35.5 -85.5 Z" /><glyph glyph-name="omicrontonosgreek" unicode="&#x3cc;" d="M930.5 131 q-131.5 -150 -350.5 -150 q-219 0 -350.5 150 q-131.5 150 -131.5 408 q0 259 132 408.5 q132 149.5 350 149.5 q218 0 350 -149.5 q132 -149.5 132 -408.5 q0 -258 -131.5 -408 ZM357.5 243 q81.5 -107 222.5 -107 q141 0 222.5 107 q81.5 107 81.5 296 q0 190 -82 296.5 q-82 106.5 -222 106.5 q-140 0 -222 -106.5 q-82 -106.5 -82 -296.5 q0 -189 81.5 -296 ZM480 1263 l88 338 l206 0 l-135 -338 l-159 0 Z" /><glyph glyph-name="upsilontonosgreek" unicode="&#x3cd;" d="M574 -19 q-198 0 -312 110.5 q-114 110.5 -114 323.5 l0 663 l172 0 l0 -654 q0 -143 65 -214.5 q65 -71.5 184 -71.5 q123 0 196.5 103 q73.5 103 73.5 292 q0 182 -20 288.5 q-20 106.5 -82 256.5 l178 0 q46 -94 74 -237.5 q28 -143.5 28 -283.5 q0 -275 -115.5 -425.5 q-115.5 -150.5 -327.5 -150.5 ZM454 1263 l88 338 l206 0 l-135 -338 l-159 0 Z" /><glyph glyph-name="omegatonosgreek" unicode="&#x3ce;" d="M1077 -19 q-201 0 -288 221 l-16 0 q-87 -221 -288 -221 q-173 0 -270 137 q-97 137 -97 388 q0 163 47.5 317.5 q47.5 154.5 129.5 254.5 l188 0 q-187 -251 -187 -570 q0 -370 203 -370 q86 0 141 77 q55 77 55 205 l0 349 l172 0 l0 -349 q0 -127 55 -204.5 q55 -77.5 139 -77.5 q205 0 205 370 q0 319 -187 570 l188 0 q82 -100 129.5 -254.5 q47.5 -154.5 47.5 -317.5 q0 -252 -96.5 -388.5 q-96.5 -136.5 -270.5 -136.5 ZM694 1263 l88 338 l206 0 l-135 -338 l-159 0 Z" /><glyph glyph-name="uni0400" unicode="&#x400;" d="M1088 162 l0 -162 l-894 0 l0 1443 l894 0 l0 -162 l-714 0 l0 -463 l677 0 l0 -160 l-677 0 l0 -496 l714 0 ZM535 1575 l-332 298 l226 0 l310 -298 l-204 0 Z" /><glyph glyph-name="Iocyrillic" unicode="&#x401;" d="M1088 162 l0 -162 l-894 0 l0 1443 l894 0 l0 -162 l-714 0 l0 -463 l677 0 l0 -160 l-677 0 l0 -496 l714 0 ZM524.5 1610.5 q-35.5 -35.5 -85.5 -35.5 q-50 0 -85.5 35.5 q-35.5 35.5 -35.5 85.5 q0 50 35.5 85.5 q35.5 35.5 85.5 35.5 q50 0 85.5 -35.5 q35.5 -35.5 35.5 -85.5 q0 -50 -35.5 -85.5 ZM928.5 1610.5 q-35.5 -35.5 -85.5 -35.5 q-50 0 -85.5 35.5 q-35.5 35.5 -35.5 85.5 q0 50 35.5 85.5 q35.5 35.5 85.5 35.5 q50 0 85.5 -35.5 q35.5 -35.5 35.5 -85.5 q0 -50 -35.5 -85.5 Z" /><glyph glyph-name="Djecyrillic" unicode="&#x402;" d="M1159 -16 q-87 0 -130 18 l0 161 q44 -16 128 -16 q123 0 193.5 78 q70.5 78 70.5 215 q0 138 -84.5 221.5 q-84.5 83.5 -224.5 83.5 q-115 0 -218.5 -60 q-103.5 -60 -144.5 -150 l0 -535 l-180 0 l0 1281 l-465 0 l0 162 l1110 0 l0 -162 l-465 0 l0 -520 l16 0 q63 68 158.5 107 q95.5 39 199.5 39 q215 0 346.5 -128 q131.5 -128 131.5 -337 q0 -208 -120.5 -333 q-120.5 -125 -321.5 -125 Z" /></font>
</defs>
</svg>
